Tags
Language
Tags

The Good Doctor S01E09 (2017)

Posted By: JohnSmith
1080p (FullHD) / WEB-DL IMDb
The Good Doctor S01E09 (2017)

The Good Doctor S01E09 (2017)
HDTV 720p | MKV / AVC@2350 kb/s | 1280x716 | 41mn | 834 MB | English: AC3, 384 kb/s (6 ch)
WEB-DL 1080p | MKV / AVC@5510 kb/s | 1920x1080 | 42mn | 1.83 GB
English: AC3, 640 kb/s (6 ch) | Subtitles: English
Genre: Drama

Shaun Murphy, a young surgeon with autism and savant syndrome, relocates from a quiet country life to join a prestigious hospital surgical unit. Alone in the world and unable to personally connect with those around him, Shaun uses his extraordinary medical gifts to save lives and challenge the skepticism of his colleagues.




General
Unique ID : 256537044952928672405644186423593043383 (0xC0FF3CD8119322CBC12D79E7389885B7)
Complete name : D:\Downloads\The.Good.Doctor.S01E09.720p.HDTV.x264-KILLERS[rarbg]\The.Good.Doctor.S01E09.720p.HDTV.x264-KILLERS.mkv
Format : Matroska
Format version : Version 4 / Version 2
File size : 834 MiB
Duration : 41 min 50 s
Overall bit rate : 2 788 kb/s
Encoded date : UTC 2017-11-28 01:04:54
Writing application : mkvmerge v9.0.1 ('Obstacles') 64bit
Writing library : libebml v1.3.3 + libmatroska v1.4.4

Video
ID : 1
Format : AVC
Format/Info : Advanced Video Codec
Format profile : High@L4.1
Format settings, CABAC : Yes
Format settings, ReFrames : 5 frames
Codec ID : V_MPEG4/ISO/AVC
Duration : 41 min 50 s
Bit rate : 2 349 kb/s
Width : 1 280 pixels
Height : 716 pixels
Display aspect ratio : 16:9
Frame rate mode : Constant
Frame rate : 23.976 (24000/1001) FPS
Color space : YUV
Chroma subsampling : 4:2:0
Bit depth : 8 bits
Scan type : Progressive
Bits/(Pixel*Frame) : 0.107
Stream size : 703 MiB (84%)
Writing library : x264 core 152 r2851 ba24899
Encoding settings : cabac=1 / ref=5 / deblock=1:0:0 / analyse=0x3:0x113 / me=hex / subme=8 / psy=1 / psy_rd=1.00:0.00 / mixed_ref=1 / me_range=16 / chroma_me=1 / trellis=2 / 8x8dct=1 / cqm=0 / deadzone=21,11 / fast_pskip=1 / chroma_qp_offset=-2 / threads=22 / lookahead_threads=3 / sliced_threads=0 / nr=0 / decimate=1 / interlaced=0 / bluray_compat=0 / constrained_intra=0 / bframes=3 / b_pyramid=2 / b_adapt=1 / b_bias=0 / direct=3 / weightb=1 / open_gop=0 / weightp=2 / keyint=250 / keyint_min=23 / scenecut=40 / intra_refresh=0 / rc_lookahead=50 / rc=crf / mbtree=1 / crf=18.0 / qcomp=0.60 / qpmin=0 / qpmax=69 / qpstep=4 / ip_ratio=1.40 / aq=1:1.00
Default : Yes
Forced : No
Color range : Limited
Matrix coefficients : BT.709

Audio
ID : 2
Format : AC-3
Format/Info : Audio Coding 3
Format settings, Endianness : Big
Codec ID : A_AC3
Duration : 41 min 50 s
Bit rate mode : Constant
Bit rate : 384 kb/s
Channel(s) : 6 channels
Channel positions : Front: L C R, Side: L R, LFE
Sampling rate : 48.0 kHz
Frame rate : 31.250 FPS (1536 spf)
Bit depth : 16 bits
Compression mode : Lossy
Stream size : 115 MiB (14%)
Service kind : Complete Main
Default : Yes
Forced : No





General
Unique ID : 186041775302902907720330508416435017881 (0x8BF657B463D3F687C8A5747A9502D899)
Complete name : D:\Downloads\The.Good.Doctor.S01E09.Intangibles.1080p.AMZN.WEBRip.DDP5.1.x264-QOQ[rarbg]\The.Good.Doctor.S01E09.Intangibles.1080p.AMZN.WEB-DL.DD+5.1.H.264-QOQ.mkv
Format : Matroska
Format version : Version 4 / Version 2
File size : 1.83 GiB
Duration : 42 min 40 s
Overall bit rate mode : Variable
Overall bit rate : 6 153 kb/s
Encoded date : UTC 2017-11-28 11:43:33
Writing application : mkvmerge v17.0.0 ('Be Ur Friend') 64-bit
Writing library : libebml v1.3.5 + libmatroska v1.4.8

Video
ID : 1
Format : AVC
Format/Info : Advanced Video Codec
Format profile : High@L4
Format settings, CABAC : Yes
Format settings, ReFrames : 4 frames
Codec ID : V_MPEG4/ISO/AVC
Duration : 42 min 40 s
Bit rate mode : Variable
Bit rate : 5 511 kb/s
Maximum bit rate : 15.0 Mb/s
Width : 1 920 pixels
Height : 1 080 pixels
Display aspect ratio : 16:9
Frame rate mode : Constant
Frame rate : 23.976 (24000/1001) FPS
Color space : YUV
Chroma subsampling : 4:2:0
Bit depth : 8 bits
Scan type : Progressive
Bits/(Pixel*Frame) : 0.111
Stream size : 1.64 GiB (90%)
Default : Yes
Forced : No
Color range : Limited
Color primaries : BT.709
Transfer characteristics : BT.709
Matrix coefficients : BT.709

Audio
ID : 2
Format : E-AC-3
Format/Info : Enhanced Audio Coding 3
Format settings, Endianness : Big
Codec ID : A_EAC3
Duration : 42 min 40 s
Bit rate mode : Constant
Bit rate : 640 kb/s
Channel(s) : 6 channels
Channel positions : Front: L C R, Side: L R, LFE
Sampling rate : 48.0 kHz
Frame rate : 187.500 FPS (256 spf)
Compression mode : Lossy
Stream size : 195 MiB (10%)
Language : English
Service kind : Complete Main
Default : Yes
Forced : No

Text
ID : 3
Format : UTF-8
Codec ID : S_TEXT/UTF8
Codec ID/Info : UTF-8 Plain Text
Duration : 42 min 35 s
Bit rate : 81 b/s
Count of elements : 946
Stream size : 25.3 KiB (0%)
Language : English
Default : No
Forced : No




Screenshots HDTV 720p

The Good Doctor S01E09 (2017)

The Good Doctor S01E09 (2017)

The Good Doctor S01E09 (2017)


Screenshots WEB-DL 1080p

The Good Doctor S01E09 (2017)

The Good Doctor S01E09 (2017)

The Good Doctor S01E09 (2017)

All episodes