Tags
Language
Tags

The Good Doctor S01E10 (2017)

Posted By: JohnSmith
720p (HD) / WEB-DL IMDb
The Good Doctor S01E10 (2017)

The Good Doctor S01E10 (2017)
WEB-DL 720p | MKV / AVC@1920 kb/s | 1280x720 | 43mn | 790 MB
English: AC3, 640 kb/s (6 ch) | Subtitles: English
Genre: Drama

Shaun Murphy, a young surgeon with autism and savant syndrome, relocates from a quiet country life to join a prestigious hospital surgical unit. Alone in the world and unable to personally connect with those around him, Shaun uses his extraordinary medical gifts to save lives and challenge the skepticism of his colleagues.




General
Unique ID : 288026653740834914321935953315207978645 (0xD8AFEA6CC3AE9FDB3D340E0CECF61E95)
Complete name : D:\Downloads\The.Good.Doctor.S01E10.iNTERNAL.720p.WEB.H264-STRiFE[rarbg]\the.good.doctor.s01e10.internal.720p.web.h264-strife.mkv
Format : Matroska
Format version : Version 4 / Version 2
File size : 790 MiB
Duration : 43 min 9 s
Overall bit rate mode : Variable
Overall bit rate : 2 561 kb/s
Encoded date : UTC 2017-12-05 08:12:52
Writing application : mkvmerge v7.3.0 ('Nouages') 64bit built on Oct 23 2014 13:14:01
Writing library : libebml v1.3.0 + libmatroska v1.4.1

Video
ID : 1
Format : AVC
Format/Info : Advanced Video Codec
Format profile : High@L3.1
Format settings, CABAC : Yes
Format settings, ReFrames : 5 frames
Codec ID : V_MPEG4/ISO/AVC
Duration : 43 min 9 s
Bit rate mode : Variable
Bit rate : 1 919 kb/s
Maximum bit rate : 4 500 kb/s
Width : 1 280 pixels
Height : 720 pixels
Display aspect ratio : 16:9
Frame rate mode : Constant
Frame rate : 23.976 (24000/1001) FPS
Color space : YUV
Chroma subsampling : 4:2:0
Bit depth : 8 bits
Scan type : Progressive
Bits/(Pixel*Frame) : 0.087
Stream size : 592 MiB (75%)
Language : English
Default : Yes
Forced : No
Color range : Limited
Color primaries : BT.709
Transfer characteristics : BT.709
Matrix coefficients : BT.709

Audio
ID : 2
Format : E-AC-3
Format/Info : Enhanced Audio Coding 3
Format settings, Endianness : Big
Codec ID : A_EAC3
Duration : 43 min 9 s
Bit rate mode : Constant
Bit rate : 640 kb/s
Channel(s) : 6 channels
Channel positions : Front: L C R, Side: L R, LFE
Sampling rate : 48.0 kHz
Frame rate : 187.500 FPS (256 spf)
Compression mode : Lossy
Stream size : 198 MiB (25%)
Language : English
Service kind : Complete Main
Default : Yes
Forced : No

Text
ID : 3
Format : UTF-8
Codec ID : S_TEXT/UTF8
Codec ID/Info : UTF-8 Plain Text
Duration : 43 min 0 s
Bit rate : 82 b/s
Count of elements : 886
Stream size : 25.8 KiB (0%)
Language : English
Default : No
Forced : No




Screenshots

The Good Doctor S01E10 (2017)

The Good Doctor S01E10 (2017)

The Good Doctor S01E10 (2017)

All episodes