Tags
Language
Tags

NHK - The Guardian of Cherry Trees (2021)

Posted By: Tutorial
720p (HD) / HDTV
NHK - The Guardian of Cherry Trees (2021)

NHK - The Guardian of Cherry Trees (2021)
HDTV | 1280 x 720 | .MKV/HEVC @ 2055 Kbps | 49 min 0 s | 767 MB
Audio: English AAC 132 Kbps, 2 channels | Subs: English
Genre: Documentary

The long-awaited grand final of BBC Young Musician 2020, delayed for a full year, will see three exceptional musicians compete for one of music's most coveted titles. The finalists have had to wait for their moment in the spotlight, but it's certain that the brilliance of the music-making will be even more special as the twenty-second edition of the contest reaches its much anticipated conclusion.

The grand final takes place at the Bridgewater Hall, Manchester, where each finalist will perform a full concerto with the BBC Philharmonic Orchestra and celebrated British conductor Mark Wigglesworth. Presenters Anna Lapwood, Josie d'Arby and Jess Gillam – herself a finalist in 2016 – are on hand to guide you through proceedings. Joining Anna with expert analysis is the 1980 winner of the title, oboist and conductor Nicholas Daniel.

A judging panel featuring some of the UK's leading musical figures is tasked with making what is always a difficult decision. They are clarinettist and composer Mark Simpson, winner of BBC Young Musician in 2006, British-Iranian experimental composer, turntablist and artist Shiva Feshareki, principal conductor of the BBC National Orchestra of Wales, Ryan Bancroft, award-winning composer and performer Errollyn Wallen, MBE, and returning to chair the jury, the chief executive of performance venue Saffron Hall, Angela Dixon.

As well as the performances by the three finalists, we will also see a return to the competition for a very special performance by the 2018 winner, pianist Lauren Zhang.

General
Unique ID : 128378958780965817555112897484173663789 (0x6094E35A2A1F322C9F1440538FA0DE2D)
Complete name : NHK.The.Guardian.of.Cherry.Trees.mkv
Format : Matroska
Format version : Version 4
File size : 767 MiB
Duration : 49 min 0 s
Overall bit rate : 2 189 kb/s
Movie name : The Guardian of Cherry Trees []
Encoded date : UTC 2021-04-25 14:56:29
Writing application : mkvmerge v56.1.0 ('My Friend') 64-bit
Writing library : libebml v1.4.2 + libmatroska v1.6.4

Video
ID : 1
Format : HEVC
Format/Info : High Efficiency Video Coding
Format profile : Main@L4@Main
Codec ID : V_MPEGH/ISO/HEVC
Duration : 49 min 0 s
Bit rate : 2 055 kb/s
Width : 1 280 pixels
Height : 720 pixels
Display aspect ratio : 16:9
Frame rate mode : Constant
Frame rate : 50.000 FPS
Color space : YUV
Chroma subsampling : 4:2:0
Bit depth : 8 bits
Bits/(Pixel*Frame) : 0.045
Stream size : 720 MiB (94%)
Writing library : x265 3.5+9-bf91444e0:[Windows][MSVC 1928][64 bit] 8bit
Encoding settings : cpuid=1111039 / frame-threads=3 / numa-pools=12 / wpp / no-pmode / no-pme / no-psnr / no-ssim / log-level=2 / input-csp=1 / input-res=1280x720 / interlace=0 / total-frames=147000 / level-idc=0 / high-tier=1 / uhd-bd=0 / ref=3 / no-allow-non-conformance / no-repeat-headers / annexb / no-aud / no-eob / no-eos / no-hrd / info / hash=0 / no-temporal-layers / no-open-gop / min-keyint=50 / keyint=500 / gop-lookahead=11 / bframes=7 / b-adapt=2 / b-pyramid / bframe-bias=0 / rc-lookahead=20 / lookahead-slices=4 / scenecut=40 / hist-scenecut=0 / radl=0 / no-splice / no-intra-refresh / ctu=64 / min-cu-size=8 / no-rect / no-amp / max-tu-size=32 / tu-inter-depth=1 / tu-intra-depth=1 / limit-tu=0 / rdoq-level=0 / dynamic-rd=0.00 / no-ssim-rd / signhide / no-tskip / nr-intra=0 / nr-inter=0 / no-constrained-intra / strong-intra-smoothing / max-merge=3 / limit-refs=1 / no-limit-modes / me=2 / subme=2 / merange=48 / temporal-mvp / no-frame-dup / hme / Level / merange / L0,L1,L2=16,32,48 / weightp / weightb / no-analyze-src-pics / deblock=0:0 / sao / no-sao-non-deblock / rd=3 / selective-sao=4 / early-skip / rskip / no-fast-intra / no-tskip-fast / no-cu-lossless / b-intra / no-splitrd-skip / rdpenalty=0 / psy-rd=2.00 / psy-rdoq=0.00 / no-rd-refine / no-lossless / cbqpoffs=0 / crqpoffs=0 / rc=crf / crf=20.0 / qcomp=0.60 / qpstep=4 / stats-write=0 / stats-read=0 / ipratio=1.40 / pbratio=1.30 / aq-mode=4 / aq-strength=1.00 / cutree / zone-count=0 / no-strict-cbr / qg-size=32 / no-rc-grain / qpmax=69 / qpmin=0 / no-const-vbv / sar=1 / overscan=0 / videoformat=5 / range=0 / colorprim=1 / transfer=1 / colormatrix=1 / chromaloc=0 / display-window=0 / cll=0,0 / min-luma=0 / max-luma=255 / log2-max-poc-lsb=8 / vui-timing-info / vui-hrd-info / slices=1 / no-opt-qp-pps / no-opt-ref-list-length-pps / no-multi-pass-opt-rps / scenecut-bias=0.05 / hist-threshold=0.03 / no-opt-cu-delta-qp / no-aq-motion / no-hdr10 / no-hdr10-opt / no-dhdr10-opt / no-idr-recovery-sei / analysis-reuse-level=0 / analysis-save-reuse-level=0 / analysis-load-reuse-level=0 / scale-factor=0 / refine-intra=0 / refine-inter=0 / refine-mv=1 / refine-ctu-distortion=0 / no-limit-sao / ctu-info=0 / no-lowpass-dct / refine-analysis-type=0 / copy-pic=1 / max-ausize-factor=1.0 / no-dynamic-refine / no-single-sei / no-hevc-aq / no-svt / no-field / qp-adaptation-range=1.00 / scenecut-aware-qp=0conformance-window-offsets / right=0 / bottom=0 / decoder-max-rate=0 / no-vbv-live-multi-pass
Language : English
Default : Yes
Forced : No
Color range : Limited
Color primaries : BT.709
Transfer characteristics : BT.709
Matrix coefficients : BT.709

Audio
ID : 2
Format : AAC LC
Format/Info : Advanced Audio Codec Low Complexity
Codec ID : A_AAC-2
Duration : 48 min 59 s
Bit rate : 132 kb/s
Channel(s) : 2 channels
Channel layout : L R
Sampling rate : 48.0 kHz
Frame rate : 46.875 FPS (1024 SPF)
Compression mode : Lossy
Stream size : 45.6 MiB (6%)
Language : English
Default : Yes
Forced : No
Screenshots

NHK - The Guardian of Cherry Trees (2021)

NHK - The Guardian of Cherry Trees (2021)

NHK - The Guardian of Cherry Trees (2021)

Welcome to my blog - daily update!

NHK - The Guardian of Cherry Trees (2021)