Tags
Language
Tags

Grip of the Strangler / The Haunted Strangler (1958)

Posted By: Without
1080p (FullHD) / WEB-DL IMDb
Grip of the Strangler / The Haunted Strangler (1958)

Grip of the Strangler / The Haunted Strangler (1958)
WEBRip 1080p | MP4 | 1 h 18 min | 1.50 GB | 1432x1080 | AVC@2500 kb/s | English AAC@224 kb/s, 2 ch
WEB-DL 1080p | MKV | 1 h 18 min | 4.50 GB | 1440x1080 | AVC@7929 kb/s | English AC3@224 kb/s, 2 ch
Subs: English
Genre: Crime, Mystery, Horror

A researcher investigating a notorious serial killer who was hanged 20 years earlier seemingly becomes possessed by the long dead strangler.



General
Grip.of.the.Strangler.1958.1080p.WEBRip.x264.mp4
Format : MPEG-4
Format profile : Base Media
Codec ID : isom (isom/iso2/avc1/mp41)
File size : 1.50 GB
Duration : 1 h 18 min
Overall bit rate : 2729 kb/s
Encoded date : UTC 2021-02-28 15:57:43
Tagged date : UTC 2021-02-28 15:57:43
Writing application : Lavf58.20.100

Video
ID : 1
Format : AVC
Format/Info : Advanced Video Codec
Format profile : High@L4.1
Format settings, CABAC : Yes
Format settings, ReFrames : 4 frames
Codec ID : avc1
Codec ID/Info : Advanced Video Coding
Duration : 1 h 18 min
Bit rate : 2500 kb/s
Width : 1432 pixels
Height : 1080 pixels
Display aspect ratio : 4:3
Frame rate mode : Constant
Frame rate : 23.976 (23976/1000) FPS
Color space : YUV
Chroma subsampling : 4:2:0
Bit depth : 8 bits
Scan type : Progressive
Bits/(Pixel*Frame) : 0.067
Stream size : 1.38 GB (92%)
Writing library : x264 core 152 r2851M ba24899
Encoding settings : cabac=1 / ref=4 / deblock=1:-1:-1 / analyse=0x3:0x113 / me=umh / subme=9 / psy=1 / psy_rd=1.00:0.15 / mixed_ref=1 / me_range=24 / chroma_me=1 / trellis=2 / 8x8dct=1 / cqm=0 / deadzone=21,11 / fast_pskip=1 / chroma_qp_offset=-3 / threads=16 / lookahead_threads=4 / sliced_threads=0 / nr=0 / decimate=1 / interlaced=0 / bluray_compat=0 / constrained_intra=0 / bframes=3 / b_pyramid=2 / b_adapt=2 / b_bias=0 / direct=3 / weightb=1 / open_gop=0 / weightp=2 / keyint=250 / keyint_min=25 / scenecut=40 / intra_refresh=0 / rc_lookahead=50 / rc=2pass / mbtree=1 / bitrate=2500 / ratetol=1.0 / qcomp=0.60 / qpmin=0 / qpmax=69 / qpstep=4 / cplxblur=20.0 / qblur=0.5 / vbv_maxrate=31250 / vbv_bufsize=31250 / nal_hrd=none / filler=0 / ip_ratio=1.40 / aq=3:1.00
Encoded date : UTC 2021-02-28 15:57:43
Tagged date : UTC 2021-02-28 15:57:43

Audio
ID : 2
Format : AAC
Format/Info : Advanced Audio Codec
Format profile : LC
Codec ID : 40
Duration : 1 h 18 min
Duration_LastFrame : -11 ms
Bit rate mode : Constant
Bit rate : 224 kb/s
Channel(s) : 2 channels
Channel positions : Front: L R
Sampling rate : 48.0 kHz
Frame rate : 46.875 FPS (1024 spf)
Compression mode : Lossy
Stream size : 126 MB (8%)
Language : English
Default : Yes
Alternate group : 1
Encoded date : UTC 2021-02-28 15:57:43
Tagged date : UTC 2021-02-28 15:57:43


General
Grip.of.the.Strangler.1958.1080p.WEB-DL.DD+2.0.H.264-SbR.mkv
Format : Matroska
Format version : Version 4 / Version 2
File size : 4.50 GB
Duration : 1 h 18 min
Overall bit rate mode : Variable
Overall bit rate : 8155 kb/s
Encoded date : UTC 2021-02-25 21:31:59
Writing application : mkvmerge v53.0.0 ('Fool's Gold') 64-bit
Writing library : libebml v1.4.1 + libmatroska v1.6.2
Cover : Yes
Attachments : cover.jpg

Video
ID : 1
Format : AVC
Format/Info : Advanced Video Codec
Format profile : High@L4
Format settings, CABAC : Yes
Format settings, ReFrames : 4 frames
Codec ID : V_MPEG4/ISO/AVC
Duration : 1 h 18 min
Bit rate mode : Variable
Bit rate : 7929 kb/s
Maximum bit rate : 15.0 Mb/s
Width : 1440 pixels
Height : 1080 pixels
Display aspect ratio : 4:3
Frame rate mode : Constant
Frame rate : 23.976 (24000/1001) FPS
Color space : YUV
Chroma subsampling : 4:2:0
Bit depth : 8 bits
Scan type : Progressive
Bits/(Pixel*Frame) : 0.213
Stream size : 4.37 GB (97%)
Writing library : x264 core 148 r2623 d5b2374
Encoding settings : cabac=1 / ref=4 / deblock=1:-1:-1 / analyse=0x3:0x133 / me=umh / subme=9 / psy=1 / psy_rd=1.00:0.15 / mixed_ref=1 / me_range=24 / chroma_me=1 / trellis=2 / 8x8dct=1 / cqm=0 / deadzone=21,11 / fast_pskip=1 / chroma_qp_offset=-3 / threads=34 / lookahead_threads=5 / sliced_threads=0 / nr=150 / decimate=1 / interlaced=0 / bluray_compat=0 / constrained_intra=0 / bframes=8 / b_pyramid=2 / b_adapt=2 / b_bias=0 / direct=3 / weightb=1 / open_gop=0 / weightp=2 / keyint=120 / keyint_min=61 / scenecut=0 / intra_refresh=0 / rc_lookahead=120 / rc=crf / mbtree=1 / crf=18.0 / qcomp=0.60 / qpmin=0 / qpmax=69 / qpstep=4 / vbv_maxrate=15000 / vbv_bufsize=31250 / crf_max=0.0 / nal_hrd=vbr / filler=0 / ip_ratio=1.40 / aq=3:1.00
Language : English
Default : Yes
Forced : No
Color range : Limited
Color primaries : BT.709
Transfer characteristics : BT.709
Matrix coefficients : BT.709

Audio
ID : 2
Format : E-AC-3
Format/Info : Enhanced Audio Coding 3
Format settings, Endianness : Big
Codec ID : A_EAC3
Duration : 1 h 18 min
Bit rate mode : Constant
Bit rate : 224 kb/s
Channel(s) : 2 channels
Channel positions : Front: L R
Sampling rate : 48.0 kHz
Frame rate : 187.500 FPS (256 spf)
Compression mode : Lossy
Stream size : 126 MB (3%)
Language : English
Default : Yes
Forced : No

Text #1
ID : 3
Format : UTF-8
Codec ID : S_TEXT/UTF8
Codec ID/Info : UTF-8 Plain Text
Duration : 1 h 17 min
Bit rate : 69 b/s
Count of elements : 986
Stream size : 39.7 KiB (0%)
Language : English
Default : No
Forced : No

Text #2
ID : 4
Format : UTF-8
Codec ID : S_TEXT/UTF8
Codec ID/Info : UTF-8 Plain Text
Duration : 1 h 17 min
Bit rate : 74 b/s
Count of elements : 1003
Stream size : 42.4 KiB (0%)
Title : SDH
Language : English
Default : No
Forced : No

Menu
00:00:00.000 : en: 1. Newgate Prison, 1860
00:05:49.474 : en: 2. Mystery of the Haymarket Strangler
00:10:56.364 : en: 3. A case against Tenant
00:16:01.669 : en: 4. The Judas Hole
00:24:40.354 : en: 5. "Where is the knife?"
00:30:05.220 : en: 6. Back from the grave
00:37:07.976 : en: 7. Murder!
00:45:25.306 : en: 8. Stirring up the dead
00:53:56.400 : en: 9. "I am Tenant"
00:59:40.952 : en:10. Committed
01:05:15.870 : en:11. The Strangler escapes
01:10:29.559 : en:12. "Forgive me, Lily"
01:16:19.950 : en:13. "It belongs here…with me"



WEBRip 1080p Screenshots

Grip of the Strangler / The Haunted Strangler (1958)

Grip of the Strangler / The Haunted Strangler (1958)

Grip of the Strangler / The Haunted Strangler (1958)


WEB-DL 1080p Screenshots

Grip of the Strangler / The Haunted Strangler (1958)

Grip of the Strangler / The Haunted Strangler (1958)

Grip of the Strangler / The Haunted Strangler (1958)


Come Visit My Blog (•‿•)