Tags
Language
Tags
March 2024
Su Mo Tu We Th Fr Sa
25 26 27 28 29 1 2
3 4 5 6 7 8 9
10 11 12 13 14 15 16
17 18 19 20 21 22 23
24 25 26 27 28 29 30
31 1 2 3 4 5 6
Attention❗ To save your time, in order to download anything on this site, you must be registered 👉 HERE. If you do not have a registration yet, it is better to do it right away. ✌

( • )( • ) ( ͡⚆ ͜ʖ ͡⚆ ) (‿ˠ‿)
SpicyMags.xyz

Torsten Kaiser - The Hunt for M (2003)

Posted By: notbanned
SD / DVDRip
Torsten Kaiser - The Hunt for M (2003)

Torsten Kaiser - The Hunt for M (2003)
PDTV | 700x394 | .MKV/AVC @ 2295 Kbps | 1 h 8 min | 1.23 GiB
Audio: English AC3 224 kbps, 2 channels | Subs: English, Deutsch
Genre: Documentary

This is a documentary on the true murders and the hunt for the killer Peter Kürten, on which Fritz Lang's 1931 film "M" is based, the introduction of profiling of a killer and what make him one that revolutionized police the methods, as well as a look at the police work then and today; details and background on Lang, Lorre and on what happened to them and the film after being banned 1934 by the Hitler regime.

Peter Kürten was a German serial killer known as "The Vampire of Düsseldorf" and the "Düsseldorf Monster". He committed a series of murders and sexual assaults between February and November 1929 in the city of Düsseldorf, Germany. In the years before these assaults and murders, Kürten had amassed a lengthy criminal record for offences including arson and attempted murder. He also confessed to the 1913 murders of a nine-year-old girl in Mülheim am Rhein and a 17-year-old girl in Düsseldorf.

Described by Karl Berg as "the king of the sexual perverts", Kürten was found guilty of nine counts of murder and seven counts of attempted murder for which he was sentenced to death by beheading in April 1931. He was executed in July 1931 at age 48.

Kürten became known as the "Vampire of Düsseldorf" because he occasionally made attempts to drink the blood from his victims' wounds, and the "Düsseldorf Monster" both because the majority of his murders were committed in and around the city of Düsseldorf, and the savagery he inflicted upon his victims' bodies.

General
Unique ID : 188872898297238576299771935020635815568 (0x8E1798D85C0F80D4AD6B9CF2767A7E90)
Complete name : The.Hunt.for.M.PDTV.mkv
Format : Matroska
Format version : Version 4 / Version 2
File size : 1.23 GiB
Duration : 1 h 8 min
Overall bit rate : 2 570 kb/s
Movie name : The Hunt for M

Video
ID : 1
Format : AVC
Format/Info : Advanced Video Codec
Format profile : High@L4.1
Format settings, CABAC : Yes
Format settings, ReFrames : 16 frames
Codec ID : V_MPEG4/ISO/AVC
Duration : 1 h 8 min
Bit rate : 2 295 kb/s
Width : 700 pixels
Height : 394 pixels
Display aspect ratio : 1.893
Original display aspect ratio : 1.895
Frame rate mode : Constant
Frame rate : 25.000 FPS
Color space : YUV
Chroma subsampling : 4:2:0
Bit depth : 8 bits
Scan type : Progressive
Bits/(Pixel*Frame) : 0.333
Stream size : 1.10 GiB (89%)
Writing library : x264 core 148 r2708 86b7198
Encoding settings : cabac=1 / ref=16 / deblock=1:-3:-3 / analyse=0x3:0x133 / me=umh / subme=10 / psy=1 / psy_rd=1.00:0.00 / mixed_ref=0 / me_range=32 / chroma_me=1 / trellis=2 / 8x8dct=1 / cqm=0 / deadzone=21,11 / fast_pskip=0 / chroma_qp_offset=-2 / threads=6 / lookahead_threads=1 / sliced_threads=0 / nr=0 / decimate=0 / interlaced=0 / bluray_compat=0 / constrained_intra=0 / bframes=16 / b_pyramid=2 / b_adapt=2 / b_bias=0 / direct=3 / weightb=1 / open_gop=0 / weightp=1 / keyint=250 / keyint_min=25 / scenecut=40 / intra_refresh=0 / rc_lookahead=60 / rc=crf / mbtree=0 / crf=18.0 / qcomp=0.60 / qpmin=0 / qpmax=69 / qpstep=4 / vbv_maxrate=62500 / vbv_bufsize=78125 / crf_max=0.0 / nal_hrd=none / filler=0 / ip_ratio=1.40 / pb_ratio=1.30 / aq=2:1.00
Default : Yes
Forced : No
Color range : Limited
Color primaries : BT.601 PAL
Transfer characteristics : BT.709
Matrix coefficients : BT.601
Statistics Tags Issue : mkvmerge v17.0.0 ('Be Ur Friend') 64-bit 2018-01-07 13:35:49 / mkvmerge v17.0.0 ('Be Ur Friend') 64-bit 2018-01-07 13:35:49 / UTC 2018-01-06T12:28:58Z
FromStats_BitRate : 2342508
FromStats_Duration : 01:08:25.720000000
FromStats_FrameCount : 102643
FromStats_StreamSize : 1202210247

Audio
ID : 3
Format : AC-3
Format/Info : Audio Coding 3
Format settings, Endianness : Big
Codec ID : A_AC3
Duration : 1 h 8 min
Bit rate mode : Constant
Bit rate : 224 kb/s
Channel(s) : 2 channels
Channel positions : Front: L R
Sampling rate : 48.0 kHz
Frame rate : 31.250 FPS (1536 spf)
Bit depth : 16 bits
Compression mode : Lossy
Stream size : 110 MiB (9%)
Title : Stereo
Language : English
Service kind : Complete Main
Default : Yes
Forced : No
Statistics Tags Issue : mkvmerge v17.0.0 ('Be Ur Friend') 64-bit 2018-01-07 13:35:49 / mkvmerge v17.0.0 ('Be Ur Friend') 64-bit 2018-01-07 13:35:49 / UTC 2018-01-06T12:28:58Z
FromStats_BitRate : 224000
FromStats_Duration : 01:08:25.536000000
FromStats_FrameCount : 128298
FromStats_StreamSize : 114955008

Text #1
ID : 2
Format : UTF-8
Codec ID : S_TEXT/UTF8
Codec ID/Info : UTF-8 Plain Text
Language : English
Default : Yes
Forced : Yes
Statistics Tags Issue : mkvmerge v17.0.0 ('Be Ur Friend') 64-bit 2018-01-07 13:35:49 / mkvmerge v17.0.0 ('Be Ur Friend') 64-bit 2018-01-07 13:35:49 / UTC 2018-01-06T12:28:58Z
FromStats_BitRate : 24
FromStats_Duration : 01:00:32.687000000
FromStats_FrameCount : 117
FromStats_StreamSize : 10909

Text #2
ID : 4
Format : VobSub
Muxing mode : zlib
Codec ID : S_VOBSUB
Codec ID/Info : Picture based subtitle format used on DVDs
Language : German
Default : No
Forced : No
Statistics Tags Issue : mkvmerge v17.0.0 ('Be Ur Friend') 64-bit 2018-01-07 13:35:49 / mkvmerge v17.0.0 ('Be Ur Friend') 64-bit 2018-01-07 13:35:49 / UTC 2018-01-06T12:28:58Z
FromStats_BitRate : 3836
FromStats_Duration : 01:07:20.150000000
FromStats_FrameCount : 693
FromStats_StreamSize : 1937380

Menu
00:00:00.000 : :Chapter 1
00:02:09.360 : :Chapter 2
00:11:30.320 : :Chapter 3
00:22:41.760 : :Chapter 4
00:30:45.960 : :Chapter 5
00:40:26.720 : :Chapter 6
00:49:18.280 : :Chapter 7
00:57:24.320 : :Chapter 8


Screenshots:

Torsten Kaiser - The Hunt for M (2003)

Torsten Kaiser - The Hunt for M (2003)

Torsten Kaiser - The Hunt for M (2003)

Torsten Kaiser - The Hunt for M (2003)