The Last Hope (2017)

Posted By: Without
SD / WEB-DL IMDb
The Last Hope (2017)

The Last Hope (2017)
HDRip | AVI | 720x304 | XviD@2037 kb/s | English AC3@192 kb/s | 2 channels | 1 h 27 min | 1.36 GB
Genre: Horror

The world has been devastated by the virus that has reanimated the dead to consume the living. Australia has so far remained unscathed through a brutal border protection policy and internment facilities. Derek Jones and the High Risk Response Unit restore order to the internment facilities when law and order breaks down. When the arrival of a mysterious girl collides with the uprising at the Briar's Hill Detention Centre, will Australia, the last hope for many, finally fall?



General
The Last Hope 2017.HDRip.XviD.AC3-EVO.avi
Format : AVI
Format/Info : Audio Video Interleave
Format profile : OpenDML
Format settings : rec
File size : 1.36 GiB
Duration : 1 h 27 min
Overall bit rate : 2 235 kb/s
Writing application : AVI-Mux GUI 1.17.8.3, Feb 16 201019:42:50

Video
ID : 0
Format : MPEG-4 Visual
Format profile : Advanced Simple@L5
Format settings, BVOP : 2
Format settings, QPel : No
Format settings, GMC : No warppoints
Format settings, Matrix : Default (H.263)
Muxing mode : Packed bitstream
Codec ID : XVID
Codec ID/Hint : XviD
Duration : 1 h 27 min
Bit rate : 2 037 kb/s
Width : 720 pixels
Height : 304 pixels
Display aspect ratio : 2.35:1
Frame rate : 25.000 FPS
Color space : YUV
Chroma subsampling : 4:2:0
Bit depth : 8 bits
Scan type : Progressive
Compression mode : Lossy
Bits/(Pixel*Frame) : 0.372
Stream size : 1.24 GiB (91%)
Writing library : XviD 66

Audio
ID : 1
Format : AC-3
Format/Info : Audio Coding 3
Mode extension : CM (complete main)
Format settings, Endianness : Big
Codec ID : 2000
Duration : 1 h 27 min
Bit rate mode : Constant
Bit rate : 192 kb/s
Channel(s) : 2 channels
Channel positions : Front: L R
Sampling rate : 48.0 kHz
Frame rate : 31.250 FPS (1536 spf)
Bit depth : 16 bits
Compression mode : Lossy
Stream size : 120 MiB (9%)
Alignment : Aligned on interleaves
Interleave, duration : 64 ms (1.60 video frames)
Interleave, preload duration : 192 ms
Title : ac3


HDRip Screenshots

The Last Hope (2017)

The Last Hope (2017)

The Last Hope (2017)


Come Visit My Blog (•‿•)