Subcategories

HC The Lost Evidence - The Hidden Truth of WWII (2006)

Posted By: Tutorial
HC The Lost Evidence - The Hidden Truth of WWII (2006)

HC The Lost Evidence - The Hidden Truth of WWII (2006)
DVDRip | 720 x 416 | .MKV/AVC @ 2173 Kbps | 8x~45mn | 6.03 GB
Audio: English AC-3 224 Kbps, 2 channels | Subs: None
Genre: Documentary, War

The History Channel series The Lost Evidence recounts the moments of key battles in the European and Pacific theaters through the use of recently unearthed reconnaissance photos that were taken during the actual battle as well as in the days and weeks prior. Interviews with men on both sides of each battle offer a fresh look at the war.
This series offers an unprecedented viewpoint of famous battles in Europe during WWII, using recently unearthed reconnaissance photos that were taken during the actual battles. For over 60 years these photographs have remained lost, or forgotten…until now. For the first time these original high-resolution images allow the viewer to track the battle, step by step from the air. Individual stories of courage and heroism can be placed in the exact location where they took place. Using cutting edge technology, unique archive film, re-enactments and extraordinary interviews with the men who were there The Lost Evidence offers a new perspective on history.
Part 1: Alamein
October 23rd 1942, in the remote North African desert, British and Allied troops face off against the feared German Afrika Korps and their Italian Allies. This battle will become a personal duel between General Bernard Montgomery and General Erwin Rommel. In one of the greatest deceptions of the war, photo recons help to fool the Germans into making a catastrophic mistake.

Part 2: Battle of Britain
During the summer of 1940, the world held its breath and watched, as the British RAF and German Luftwaffe were locked in a battle to the death. The German Nazi war machine had conquered all in its path, only Britain stood in its way to total European domination.

Part 3: Battle of the Bulge
December 16th 1944 - three German armies have been amassed in total secrecy with one sole aim - to send the Allies back into the sea and change the outcome of World War Two. The troops on the ground will have to dig deeper than ever before if they are to destroy Hitler's last gamble in Europe.

Part 4: Breakout from Normandy
July 10th 1944, six long weeks since D-Day. Allied forces have been caught in a murderous battle trying to breakout of the invasion beachhead. The Germans have rebounded from the shock of invasion and are fighting back furiously, inflicting horrendous casualties on the Allied ground forces; the Allies need a breakthrough, and fast.

Part 5: Crossing the Rhine
On March 7th 1945, at the town of Remagen, American soldiers discover to their amazement that a bridge across the Rhine has not been demolished. Fate would deal the men of the 9th Armored Division a lucky card, as German attempts to blow the bridge in the face of the advancing troops failed.

Part 6: Operation Market Garden

September 17th 1944: over 20,000 elite troops descend from the skies into Nazi occupied Holland in a massive airborne assault planned to end the war in Europe by Christmas of 1944. Their objective: to secure the bridges across canals and rivers in Holland, so that the Allied army can advance at high speed into Hitler's Germany and the heart of the Third Reich.

Part 7: Stalingrad
Determined to destroy the Soviet Union once and for all Hitler has ordered his armies to strike south and seize the vital oilfields of the Caucasus region. But first they must capture Stalingrad. But the Soviet defenders make the 6th German Army pay in blood for every inch of ground and draw the Germans into a trap from which there will be no escape.

Part 8: Liberation of Paris
On August 19th Parisians rise up against their Nazi overlords, vowing to exact revenge for four years of brutal and bloody occupation. As the battle intensifies on the streets of the French capital, the race is now on for the Allies to get to Paris and save the citizens from possible slaughter and its city from complete destruction.

also You can find my last: World War II

General
Unique ID : 216611818439581116079140692707887054486 (0xA2F5EB32D025EC44B37CAAFE01747E96)
Complete name : HC.The.Lost.Evidence.The.Hidden.Truth.of.WWII.1of8.Alamein.mkv
Format : Matroska
Format version : Version 4 / Version 2
File size : 772 MiB
Duration : 45 min 0 s
Overall bit rate : 2 399 kb/s
Encoded date : UTC 2017-10-06 18:13:50
Writing application : mkvmerge v16.0.0 ('Protest') 64-bit
Writing library : libebml v1.3.5 + libmatroska v1.4.8

Video
ID : 1
Format : AVC
Format/Info : Advanced Video Codec
Format profile : High@L3
Format settings, CABAC : Yes
Format settings, ReFrames : 4 frames
Codec ID : V_MPEG4/ISO/AVC
Duration : 45 min 0 s
Bit rate : 2 173 kb/s
Width : 720 pixels
Height : 416 pixels
Display aspect ratio : 1.731
Frame rate mode : Constant
Frame rate : 25.000 FPS
Color space : YUV
Chroma subsampling : 4:2:0
Bit depth : 8 bits
Scan type : Progressive
Bits/(Pixel*Frame) : 0.290
Stream size : 700 MiB (91%)
Writing library : x264 core 146 r2555 0c21480
Encoding settings : cabac=1 / ref=3 / deblock=1:0:0 / analyse=0x3:0x133 / me=hex / subme=9 / psy=1 / psy_rd=1.00:0.00 / mixed_ref=1 / me_range=16 / chroma_me=1 / trellis=1 / 8x8dct=1 / cqm=0 / deadzone=21,11 / fast_pskip=1 / chroma_qp_offset=-2 / threads=12 / lookahead_threads=1 / sliced_threads=0 / nr=0 / decimate=1 / interlaced=0 / bluray_compat=0 / constrained_intra=0 / bframes=3 / b_pyramid=2 / b_adapt=1 / b_bias=0 / direct=1 / weightb=1 / open_gop=0 / weightp=2 / keyint=250 / keyint_min=25 / scenecut=40 / intra_refresh=0 / rc_lookahead=40 / rc=2pass / mbtree=1 / bitrate=2173 / ratetol=1.0 / qcomp=0.60 / qpmin=10 / qpmax=51 / qpstep=4 / cplxblur=20.0 / qblur=0.5 / ip_ratio=1.40 / aq=1:1.00
Default : Yes
Forced : No

Audio
ID : 2
Format : AC-3
Format/Info : Audio Coding 3
Format settings, Endianness : Big
Codec ID : A_AC3
Duration : 45 min 0 s
Bit rate mode : Constant
Bit rate : 224 kb/s
Channel(s) : 2 channels
Channel positions : Front: L R
Sampling rate : 48.0 kHz
Frame rate : 31.250 FPS (1536 spf)
Bit depth : 16 bits
Compression mode : Lossy
Delay relative to video : 247 ms
Stream size : 72.1 MiB (9%)
Language : English
Service kind : Complete Main
Default : Yes
Forced : No
Screenshots

HC The Lost Evidence - The Hidden Truth of WWII (2006)

HC The Lost Evidence - The Hidden Truth of WWII (2006)

HC The Lost Evidence - The Hidden Truth of WWII (2006)

HC The Lost Evidence - The Hidden Truth of WWII (2006)

Welcome to my blog - daily update!

HC The Lost Evidence - The Hidden Truth of WWII (2006)