Tags
Language
Tags

Nat.Geo. - The Mighty Northwest: Series 1 (2017)

Posted By: Tutorial
1080p (FullHD) / HDTV
Nat.Geo. - The Mighty Northwest: Series 1 (2017)

Nat.Geo. - The Mighty Northwest: Series 1 (2017)
HDTV | 1920 x 1080 | .MP4/AVC @ 5147 Kbps | 5x~44mn | 8.11 GB
Audio: English AAC 160 Kbps, 2 channels | Subs: English
Genre: Documentary

The Mighty Northwest: Home to the tallest trees on earth, the last of America's big glaciers, and a string of towering volcanoes, America's Pacific Northwest is one of the nation's most intriguing and mesmerizing natural wonders. In this five-part series, discover the epic meeting of land and sea that attracts some of the biggest marine life on the planet, traverse the Redwood forest-home to an incredible diversity of animals and the tallest living beings on earth, and trek the iconic Rocky Mountains where wildlife thrives despite the harsh climate and steep elevation.

Part 1: Golden Coast
Titans clash along California’s Big Coast, where rugged highlands meet the deep ocean.


Part 2: Rise of the Redwood Giants
Featuring the giant trees over the Californian coast.


Part 3: Under the Volcano
Wild mountaineers survive among the High Cascades, a landscape of sleeping giants.


Part 4: Glacier Land
Discover the ice-carved valleys, steep slopes, and hidden lakes of America's Glacier Lands.


Part 5: Shadow of the Rockies
From low valley meadows to the peaks of its mountains, discover the amazing life around the Rockies.-

General
Complete name : The.Mighty.Northwest.Series.1.1of5.Golden.Coast.mp4
Format : MPEG-4
Format profile : Base Media
Codec ID : isom (isom)
File size : 1.65 GiB
Duration : 44 min 28 s
Overall bit rate mode : Variable
Overall bit rate : 5 310 kb/s
Encoded date : UTC 2020-02-21 10:09:15
Tagged date : UTC 2020-02-21 10:09:15

Video
ID : 1
Format : AVC
Format/Info : Advanced Video Codec
Format profile : High@L4.1
Format settings, CABAC : No
Format settings, ReFrames : 2 frames
Format settings, GOP : M=1, N=12
Codec ID : avc1
Codec ID/Info : Advanced Video Coding
Duration : 44 min 28 s
Bit rate : 5 147 kb/s
Maximum bit rate : 40.1 Mb/s
Width : 1 920 pixels
Height : 1 080 pixels
Display aspect ratio : 16:9
Frame rate mode : Constant
Frame rate : 29.970 (30000/1001) FPS
Color space : YUV
Chroma subsampling : 4:2:0
Bit depth : 8 bits
Scan type : Progressive
Bits/(Pixel*Frame) : 0.083
Stream size : 1.60 GiB (97%)
Title : The.Mighty.Northwest.Series.1.1of5.Golden.Coast.1080p.HDTV.x264.AAC..org.mp4
Language : English
Encoded date : UTC 2020-02-20 17:51:25
Tagged date : UTC 2020-02-21 10:10:48

Audio
ID : 2
Format : AAC
Format/Info : Advanced Audio Codec
Format profile : LC
Codec ID : 40
Duration : 44 min 28 s
Bit rate mode : Variable
Bit rate : 160 kb/s
Maximum bit rate : 224 kb/s
Channel(s) : 2 channels
Channel positions : Front: L R
Sampling rate : 48.0 kHz
Frame rate : 46.875 FPS (1024 spf)
Compression mode : Lossy
Stream size : 50.8 MiB (3%)
Title : The.Mighty.Northwest.Series.1.1of5.Golden.Coast.1080p.HDTV.x264.AAC..org.mp4
Language : English
Encoded date : UTC 2020-02-21 10:10:41
Tagged date : UTC 2020-02-21 10:10:48

Text
ID : 3
Format : Timed Text
Codec ID : tx3g
Duration : 44 min 25 s
Bit rate mode : Variable
Bit rate : 120 b/s
Stream size : 39.0 KiB (0%)
Title : The.Mighty.Northwest.Series.1.1of5.Golden.Coast.1080p.HDTV.x264.AAC..org.srt
Forced : No
Encoded date : UTC 2020-02-21 10:10:48
Tagged date : UTC 2020-02-21 10:10:48
Screenshots

Nat.Geo. - The Mighty Northwest: Series 1 (2017)

Nat.Geo. - The Mighty Northwest: Series 1 (2017)

Welcome to my blog - daily update!

Nat.Geo. - The Mighty Northwest: Series 1 (2017)