Tags
Language
Tags

The Museum of Modern Art - In Our Time (2006)

Posted By:
1080p (FullHD) / DVDRip
The Museum of Modern Art - In Our Time (2006)

The Museum of Modern Art - In Our Time (2006)
DVDRip | 704 x 400 | .AVI/XviD @ 1605 Kbps | 56 min 47 s | 746 MB
Audio: English AC-3 224 Kbps, 2 channels | Subs: None
Genre: Documentary, Arts

Enjoy a visit to MoMA and see masterworks from the museum's collection of modern and contemporary art. What do the superstars of modern art—van Gogh, Matisse, Picasso, Pollock, and Warhol—have in common with the Vincent Black Shadow motorcycle and an Apple iPod? All share the stage at New York's Museum of Modern Art. Here the two big questions are: What makes it modern AND what makes it art? MoMA's scholars, along with David Rockefeller (son of MoMA founder Abby Rockefeller), prove that the modern art of any age is not the newest; it's the next.

General
Complete name : The.Museum.of.Modern.Art.In.Our.Time.avi
Format : AVI
Format/Info : Audio Video Interleave
File size : 746 MiB
Duration : 56 min 47 s
Overall bit rate : 1 837 kb/s
Writing application : VirtualDubMod 1.5.4.1 (build 2178/release)
Writing library : VirtualDubMod build 2178/release

Video
ID : 0
Format : MPEG-4 Visual
Format profile : Advanced Simple@L5
Format settings, BVOP : 1
Format settings, QPel : No
Format settings, GMC : No warppoints
Format settings, Matrix : Custom
Codec ID : XVID
Codec ID/Hint : XviD
Duration : 56 min 47 s
Bit rate : 1 605 kb/s
Width : 704 pixels
Height : 400 pixels
Display aspect ratio : 16:9
Frame rate : 29.970 (30000/1001) FPS
Color space : YUV
Chroma subsampling : 4:2:0
Bit depth : 8 bits
Scan type : Progressive
Compression mode : Lossy
Bits/(Pixel*Frame) : 0.190
Stream size : 652 MiB (87%)
Writing library : XviD 1.2.1 (UTC 2008-12-04)

Audio
ID : 1
Format : AC-3
Format/Info : Audio Coding 3
Format settings, Endianness : Big
Codec ID : 2000
Duration : 56 min 47 s
Bit rate mode : Constant
Bit rate : 224 kb/s
Channel(s) : 2 channels
Channel positions : Front: L R
Sampling rate : 48.0 kHz
Frame rate : 31.250 FPS (1536 spf)
Bit depth : 16 bits
Compression mode : Lossy
Stream size : 91.0 MiB (12%)
Alignment : Split accross interleaves
Interleave, duration : 96 ms (2.88 video frames)
Interleave, preload duration : 96 ms
Service kind : Complete Main
Screenshots

The Museum of Modern Art - In Our Time (2006)

The Museum of Modern Art - In Our Time (2006)

The Museum of Modern Art - In Our Time (2006)

The Museum of Modern Art - In Our Time (2006)

Welcome to my blog - daily update!

The Museum of Modern Art - In Our Time (2006)