Channel 5 - The Nation's Favourite George Michael Song (2018)

Posted By: notbanned
Channel 5 - The Nation's Favourite George Michael Song (2018)

Channel 5 - The Nation's Favourite George Michael Song (2018)
PDTV | 720x406 | .MP4/AVC @ 1258 Kbps | 45 min 25 s | 453 MiB
Audio: English AAC 128 kbps, 2 channels | Subs: English
Genre: Documentary

Countdown show of the pop singer's greatest hits.

General
Complete name : The.Nations.Favourite.George.Michael.Songs.2018.PDTV.mp4
Format : MPEG-4
Format profile : Base Media / Version 2
Codec ID : mp42 (isom/iso2/avc1/mp41)
File size : 453 MiB
Duration : 45 min 25 s
Overall bit rate mode : Variable
Overall bit rate : 1 393 kb/s

Video
ID : 1
Format : AVC
Format/Info : Advanced Video Codec
Format profile : Main@L4
Format settings, CABAC : Yes
Format settings, ReFrames : 4 frames
Codec ID : avc1
Codec ID/Info : Advanced Video Coding
Duration : 45 min 25 s
Bit rate : 1 258 kb/s
Width : 720 pixels
Height : 406 pixels
Display aspect ratio : 16:9
Frame rate mode : Constant
Frame rate : 25.000 FPS
Color space : YUV
Chroma subsampling : 4:2:0
Bit depth : 8 bits
Scan type : Progressive
Bits/(Pixel*Frame) : 0.172
Stream size : 409 MiB (90%)
Writing library : x264 core 142 r2479 dd79a61
Encoding settings : cabac=1 / ref=1 / deblock=1:0:0 / analyse=0x1:0x111 / me=hex / subme=2 / psy=1 / psy_rd=1.00:0.00 / mixed_ref=0 / me_range=16 / chroma_me=1 / trellis=0 / 8x8dct=0 / cqm=0 / deadzone=21,11 / fast_pskip=1 / chroma_qp_offset=0 / threads=6 / lookahead_threads=2 / sliced_threads=0 / nr=0 / decimate=1 / interlaced=0 / bluray_compat=0 / constrained_intra=0 / bframes=3 / b_pyramid=2 / b_adapt=1 / b_bias=0 / direct=1 / weightb=1 / open_gop=0 / weightp=1 / keyint=250 / keyint_min=25 / scenecut=40 / intra_refresh=0 / rc_lookahead=10 / rc=crf / mbtree=1 / crf=18.0 / qcomp=0.60 / qpmin=0 / qpmax=69 / qpstep=4 / vbv_maxrate=20000 / vbv_bufsize=25000 / crf_max=0.0 / nal_hrd=none / filler=0 / ip_ratio=1.40 / aq=1:1.00
Encoded date : UTC 2018-06-22 13:12:02
Tagged date : UTC 2018-06-22 13:12:02
Color range : Limited
Color primaries : BT.601 PAL
Transfer characteristics : BT.709
Matrix coefficients : BT.601

Audio
ID : 2
Format : AAC
Format/Info : Advanced Audio Codec
Format profile : LC
Codec ID : 40
Duration : 45 min 25 s
Bit rate mode : Variable
Bit rate : 128 kb/s
Channel(s) : 2 channels
Channel positions : Front: L R
Sampling rate : 48.0 kHz
Frame rate : 46.875 FPS (1024 spf)
Compression mode : Lossy
Stream size : 41.7 MiB (9%)
Title : Stereo / Stereo
Language : English
Default : Yes
Alternate group : 1
Encoded date : UTC 2018-06-22 13:12:02
Tagged date : UTC 2018-06-22 13:12:02

Text
ID : 3
Format : Timed Text
Muxing mode : sbtl
Codec ID : tx3g
Duration : 44 min 41 s
Bit rate mode : Variable
Bit rate : 114 b/s
Stream size : 37.3 KiB (0%)
Language : English
Default : Yes
Forced : No
Alternate group : 3
Encoded date : UTC 2018-06-22 13:12:02
Tagged date : UTC 2018-06-22 13:12:02


Screenshots:

Channel 5 - The Nation's Favourite George Michael Song (2018)

Channel 5 - The Nation's Favourite George Michael Song (2018)

Channel 5 - The Nation's Favourite George Michael Song (2018)

Channel 5 - The Nation's Favourite George Michael Song (2018)