CBC - The Nature Of Things: Into the Fire (2017)

Posted By: notbanned
CBC - The Nature Of Things: Into the Fire (2017)

CBC - The Nature Of Things: Into the Fire (2017)
WEB-DL | 1280x720 | .MKV/AVC @ 3400 Kbps | 44 min 8 s | 1.10 GiB
Audio: English AAC 192 kbps, 2 channels | Subs: None
Genre: Documentary

Nature of Things: Into the Fire Tonight on CBC-TV, a compelling new documentary travels from Alberta to Australia to follow researchers and firefighters as they investigate the science of fire.


General
Unique ID : 250278576462317876043292336113301026866 (0xBC49E6862AF7DFF68130991F629F7832)
Complete name : The.Nature.of.Things.S57E07.Into.the.Fire.720p.mkv
Format : Matroska
Format version : Version 4 / Version 2
File size : 1.10 GiB
Duration : 44 min 8 s
Overall bit rate : 3 568 kb/s

Video
ID : 1
Format : AVC
Format/Info : Advanced Video Codec
Format profile : Main@L3.1
Format settings, CABAC : Yes
Format settings, ReFrames : 4 frames
Codec ID : V_MPEG4/ISO/AVC
Duration : 44 min 8 s
Bit rate mode : Constant
Bit rate : 3 400 kb/s
Width : 1 280 pixels
Height : 720 pixels
Display aspect ratio : 16:9
Frame rate mode : Constant
Frame rate : 29.970 (29970/1000) FPS
Original frame rate : 29.970 (30000/1001) FPS
Color space : YUV
Chroma subsampling : 4:2:0
Bit depth : 8 bits
Scan type : Progressive
Bits/(Pixel*Frame) : 0.123
Stream size : 1.04 GiB (95%)
Default : Yes
Forced : No

Audio
ID : 2
Format : AAC
Format/Info : Advanced Audio Codec
Format profile : LC
Codec ID : A_AAC
Duration : 44 min 7 s
Bit rate : 192 kb/s
Channel(s) : 2 channels
Channel positions : Front: L R
Sampling rate : 44.1 kHz
Frame rate : 43.066 FPS (1024 spf)
Compression mode : Lossy
Stream size : 59.8 MiB (5%)
Language : English
Default : Yes
Forced : No


Screenshots:

CBC - The Nature Of Things: Into the Fire (2017)

CBC - The Nature Of Things: Into the Fire (2017)

CBC - The Nature Of Things: Into the Fire (2017)

CBC - The Nature Of Things: Into the Fire (2017)