Tags
Language
Tags

CBC The Nature Of Things - Jumbo: The Life Of An Elephant Superstar (2018)

Posted By: notbanned
720p (HD) / WEBRip
CBC The Nature Of Things - Jumbo: The Life Of An Elephant Superstar (2018)

CBC The Nature Of Things - Jumbo: The Life Of An Elephant Superstar (2018)
WEBRip | 1280x720 | .MP4/AVC @ 2500 Kbps | 44 min 8 s | 970 MiB
Audio: English AC3 384 kbps, 6 channels | Subs: English
Genre: Documentary

The Nature of Things is one of the most successful series in the history of Canadian television. Hosted by the world-renowned geneticist and environmentalist, David Suzuki, the program is in its 57th season, a landmark by any standard. Every week, the influential program presents stories that are driven by a scientific understanding of the world. Stories full of adventure, drama and insight. Our programs entertain and inspire audiences by engaging with the people and personalities behind the science. From the search for other life in the universe to the psychology of babies, from the furry animals that invade your backyard to the consequences of human progress, The Nature of Things throws open the door to the wonder and accomplishments of science.

General
Complete name : The.Nature.of.Things.S57E10.Jumbo.The.Life.Of.An.Elephant.Superstar.720p.mp4
Format : MPEG-4
Format profile : Base Media / Version 2
Codec ID : mp42 (mp42/isom)
File size : 970 MiB
Duration : 44 min 8 s
Overall bit rate mode : Variable
Overall bit rate : 3 074 kb/s

Video
ID : 1
Format : AVC
Format/Info : Advanced Video Codec
Format profile : High@L4.1
Format settings, CABAC : Yes
Format settings, ReFrames : 6 frames
Codec ID : avc1
Codec ID/Info : Advanced Video Coding
Duration : 44 min 8 s
Duration_LastFrame : 100 ms
Bit rate : 2 500 kb/s
Width : 1 280 pixels
Height : 720 pixels
Display aspect ratio : 16:9
Frame rate mode : Constant
Frame rate : 29.970 (30000/1001) FPS
Color space : YUV
Chroma subsampling : 4:2:0
Bit depth : 8 bits
Scan type : Progressive
Bits/(Pixel*Frame) : 0.091
Stream size : 787 MiB (81%)
Writing library : x264 core 148 r2708 86b7198
Encoding settings : cabac=1 / ref=6 / deblock=1:-1:-1 / analyse=0x3:0x113 / me=hex / subme=6 / psy=1 / psy_rd=1.00:0.15 / mixed_ref=1 / me_range=16 / chroma_me=1 / trellis=1 / 8x8dct=1 / cqm=0 / deadzone=21,11 / fast_pskip=1 / chroma_qp_offset=-3 / threads=12 / lookahead_threads=2 / sliced_threads=0 / nr=0 / decimate=1 / interlaced=0 / bluray_compat=0 / constrained_intra=0 / bframes=3 / b_pyramid=2 / b_adapt=1 / b_bias=0 / direct=1 / weightb=1 / open_gop=0 / weightp=1 / keyint=300 / keyint_min=30 / scenecut=40 / intra_refresh=0 / rc_lookahead=30 / rc=abr / mbtree=1 / bitrate=2500 / ratetol=1.0 / qcomp=0.60 / qpmin=0 / qpmax=69 / qpstep=4 / vbv_maxrate=62500 / vbv_bufsize=78125 / nal_hrd=none / filler=0 / ip_ratio=1.40 / aq=1:1.00
Encoded date : UTC 2018-01-08 07:44:29
Tagged date : UTC 2018-01-08 07:44:33
Color range : Limited
Color primaries : BT.709
Transfer characteristics : BT.709
Matrix coefficients : BT.709

Audio #1
ID : 2
Format : AC-3
Format/Info : Audio Coding 3
Format settings, Endianness : Big
Codec ID : ac-3
Duration : 44 min 8 s
Bit rate mode : Constant
Bit rate : 384 kb/s
Channel(s) : 6 channels
Channel positions : Front: L C R, Side: L R, LFE
Sampling rate : 48.0 kHz
Frame rate : 31.250 FPS (1536 spf)
Bit depth : 16 bits
Compression mode : Lossy
Stream size : 121 MiB (12%)
Language : English
Service kind : Complete Main
Default : Yes
Alternate group : 1
Encoded date : UTC 2018-01-08 07:44:29
Tagged date : UTC 2018-01-08 07:44:33

Audio #2
ID : 3
Format : AC-3
Format/Info : Audio Coding 3
Mode : Dolby Digital
Format settings, Endianness : Big
Codec ID : ac-3
Duration : 44 min 7 s
Source duration : 44 min 8 s
Bit rate mode : Constant
Bit rate : 192 kb/s
Channel(s) : 2 channels
Channel positions : Front: L R
Sampling rate : 48.0 kHz
Frame rate : 31.250 FPS (1536 spf)
Bit depth : 16 bits
Compression mode : Lossy
Stream size : 60.6 MiB (6%)
Source stream size : 60.6 MiB (6%)
Language : English
Service kind : Complete Main
Default : No
Alternate group : 1
Encoded date : UTC 2018-01-08 07:44:29
Tagged date : UTC 2018-01-08 07:44:33

Text
ID : 4
Format : Timed Text
Muxing mode : sbtl
Codec ID : tx3g
Duration : 44 min 5 s
Bit rate mode : Variable
Bit rate : 88 b/s
Stream size : 28.4 KiB (0%)
Language : English
Default : Yes
Forced : No
Alternate group : 2
Encoded date : UTC 2018-01-08 07:44:29
Tagged date : UTC 2018-01-08 07:44:33


Screenshots:

CBC The Nature Of Things - Jumbo: The Life Of An Elephant Superstar (2018)

CBC The Nature Of Things - Jumbo: The Life Of An Elephant Superstar (2018)

CBC The Nature Of Things - Jumbo: The Life Of An Elephant Superstar (2018)

CBC The Nature Of Things - Jumbo: The Life Of An Elephant Superstar (2018)