Tags
Language
Tags

The Nine Lives of Ozzy Osbourne (2020)

Posted By: notbanned
720p (HD) / WEB-DL IMDb
The Nine Lives of Ozzy Osbourne (2020)

The Nine Lives of Ozzy Osbourne (2020)
WEB-DL | 1280x720 | .MKV/AVC @ 2494 Kbps | 1 h 25 min | 1.57 GiB
Audio: English AAC 128 kbps, 2 channels | Subs: None
Genre: Documentary | Biography

“Biography: The Nine Lives of Ozzy Osbourne” traces Ozzy’s life from his childhood in poverty and time in prison, to fronting legendary Rock and Roll Hall of Fame inductees Black Sabbath and successful Grammy Award-winning solo career, to one of rock’s elder statesmen and a loveable 21st century television dad. The two-hour documentary explores how Ozzy has continually reinvented himself and his career to propel himself toward greater success.

As Ozzy turns 70, he reflects on the intimate details of his successes, failures, and his unique ability for survival and perseverance—including never-before-seen interviews about his recent Parkinson’s diagnosis.

The documentary, a selection of the 2020 SXSW Film Festival, also features interviews with Sharon, Kelly and Jack Osbourne as well as friends and fellow musicians including Rick Rubin, Ice-T, Marilyn Manson, Rob Zombie, Jonathan Davis, Post Malone and more.

General
Unique ID : 223682609265856781700244628379840629669 (0xA847B41A0AE6F4EA7697DB91C5F14BA5)
Complete name : The.Nine.Lives.of.Ozzy.Osbourne.2020.720p.mkv
Format : Matroska
Format version : Version 4 / Version 2
File size : 1.57 GiB
Duration : 1 h 25 min
Overall bit rate : 2 625 kb/s

Video
ID : 1
Format : AVC
Format/Info : Advanced Video Codec
Format profile : Main@L3.1
Format settings, CABAC : Yes
Format settings, ReFrames : 4 frames
Format settings, GOP : M=1, N=48
Codec ID : V_MPEG4/ISO/AVC
Duration : 1 h 25 min
Bit rate : 2 494 kb/s
Width : 1 280 pixels
Height : 720 pixels
Display aspect ratio : 16:9
Frame rate mode : Constant
Frame rate : 23.976 (24000/1001) FPS
Color space : YUV
Chroma subsampling : 4:2:0
Bit depth : 8 bits
Scan type : Progressive
Bits/(Pixel*Frame) : 0.113
Stream size : 1.50 GiB (95%)
Writing library : Zencoder Video Encoding System
Default : Yes
Forced : No
Color range : Limited
Color primaries : BT.709
Transfer characteristics : BT.709
Matrix coefficients : BT.709

Audio
ID : 2
Format : AAC
Format/Info : Advanced Audio Codec
Format profile : LC
Codec ID : A_AAC
Duration : 1 h 25 min
Bit rate : 128 kb/s
Channel(s) : 2 channels
Channel positions : Front: L R
Sampling rate : 48.0 kHz
Frame rate : 46.875 FPS (1024 spf)
Compression mode : Lossy
Stream size : 78.6 MiB (5%)
Default : Yes
Forced : No


Screenshots:

The Nine Lives of Ozzy Osbourne (2020)

The Nine Lives of Ozzy Osbourne (2020)

The Nine Lives of Ozzy Osbourne (2020)

The Nine Lives of Ozzy Osbourne (2020)