Tags
Language
Tags

The Quiet Force (2018)

Posted By: notbanned
1080p (FullHD) / WEBRip
The Quiet Force (2018)

The Quiet Force (2018)
WEBRip | 1920x1080 | .MKV/AVC @ 6781 Kbps | 37 min 5 s | 1.82 GiB
Audio: English EAC3 224 kbps, 2 channels | Subs: English
Genre: Documentary

In many American ski towns, the tourism and services economies would grind to a halt without their Latino populations. In a place like Jackson, Wyoming, the Latino community is a mix of documented immigrants and undocumented workers - many of whom are facing increasing risk of deportation under the current Presidential Administration, often resulting in family separation.

General
Unique ID : 49633520970198606267257838307722744936 (0x25571184827C6D76A36B26854F595468)
Complete name : The.Quiet.Fce.2018.1080p.mkv
Format : Matroska
Format version : Version 4 / Version 2
File size : 1.82 GiB
Duration : 37 min 5 s
Overall bit rate : 7 007 kb/s

Video
ID : 1
Format : AVC
Format/Info : Advanced Video Codec
Format profile : High@L4
Format settings, CABAC : Yes
Format settings, ReFrames : 4 frames
Codec ID : V_MPEG4/ISO/AVC
Duration : 37 min 5 s
Bit rate mode : Constant
Bit rate : 6 781 kb/s
Nominal bit rate : 10 000 kb/s
Width : 1 920 pixels
Height : 1 080 pixels
Display aspect ratio : 16:9
Frame rate mode : Constant
Frame rate : 23.976 (24000/1001) FPS
Color space : YUV
Chroma subsampling : 4:2:0
Bit depth : 8 bits
Scan type : Progressive
Bits/(Pixel*Frame) : 0.136
Stream size : 1.76 GiB (97%)
Language : English
Default : Yes
Forced : No
Color range : Limited
Color primaries : BT.709
Transfer characteristics : BT.709
Matrix coefficients : BT.709

Audio
ID : 2
Format : E-AC-3
Format/Info : Enhanced Audio Coding 3
Format settings, Endianness : Big
Codec ID : A_EAC3
Duration : 37 min 5 s
Bit rate mode : Constant
Bit rate : 224 kb/s
Channel(s) : 2 channels
Channel positions : Front: L R
Sampling rate : 48.0 kHz
Frame rate : 187.500 FPS (256 spf)
Compression mode : Lossy
Stream size : 59.4 MiB (3%)
Title : English
Language : English
Service kind : Complete Main
Default : Yes
Forced : No

Text
ID : 3
Format : UTF-8
Codec ID : S_TEXT/UTF8
Codec ID/Info : UTF-8 Plain Text
Duration : 35 min 11 s
Bit rate : 80 b/s
Count of elements : 553
Stream size : 20.8 KiB (0%)
Title : English (SDH)
Language : English
Default : No
Forced : No


Screenshots:

The Quiet Force (2018)

The Quiet Force (2018)

The Quiet Force (2018)

The Quiet Force (2018)