Tags
Language
Tags

BBC - Panorama: The Race for a Vaccine (2020)

Posted By:
720p (HD) / HDTV
BBC - Panorama: The Race for a Vaccine (2020)

BBC - Panorama: The Race for a Vaccine (2020)
HDTV | 1280 x 720 | .MKV/AVC @ 1393 Kbps | 58 min 59 s | 682 MB
Audio: English AC-3 192 Kbps, 2 channels | Subs: English
Genre: Documentary

Panorama tells the inside story of the development of the Oxford vaccine against Covid-19. For the past 11 months, the BBC's medical editor Fergus Walsh followed the team at Oxford University and AstraZeneca, as they designed, developed, manufactured and trialled the vaccine.

As the pandemic worsened, the programme follows volunteers in the trial in the UK, Brazil and the USA. Fergus Walsh scrutinises the data that has come out of the trials, and examines the vaccination's efficacy and safety. He provides a unique inside view on a remarkable year for science.


General
Complete name : Panorama.2020.12.14.The.Race.for.a.Vaccine.720p.HDTV.mkv
Format : Matroska
Format version : Version 4
File size : 682 MiB
Duration : 58 min 59 s
Overall bit rate : 1 617 kb/s
Movie name : Panorama 2020 12 14 The Race for a Vaccine
Writing application : no_variable_data
Writing library : no_variable_data

Video
ID : 1
Format : AVC
Format/Info : Advanced Video Codec
Format profile : High@L4.1
Format settings : CABAC / 5 Ref Frames
Format settings, CABAC : Yes
Format settings, Reference frames : 5 frames
Codec ID : V_MPEG4/ISO/AVC
Duration : 58 min 59 s
Bit rate : 1 393 kb/s
Width : 1 280 pixels
Height : 720 pixels
Display aspect ratio : 16:9
Frame rate mode : Constant
Frame rate : 25.000 FPS
Color space : YUV
Chroma subsampling : 4:2:0
Bit depth : 8 bits
Scan type : Interlaced
Original scan type : Progressive
Scan type, store method : Interleaved fields
Scan order : Top Field First
Bits/(Pixel*Frame) : 0.060
Stream size : 588 MiB (86%)
Writing library : x264 core 161 r3027 4121277
Encoding settings : cabac=1 / ref=5 / deblock=1:0:0 / analyse=0x3:0x113 / me=hex / subme=8 / psy=1 / psy_rd=1.00:0.00 / mixed_ref=1 / me_range=16 / chroma_me=1 / trellis=2 / 8x8dct=1 / cqm=0 / deadzone=21,11 / fast_pskip=1 / chroma_qp_offset=-2 / threads=22 / lookahead_threads=3 / sliced_threads=0 / nr=0 / decimate=1 / interlaced=0 / bluray_compat=0 / constrained_intra=0 / bframes=3 / b_pyramid=2 / b_adapt=1 / b_bias=0 / direct=3 / weightb=1 / open_gop=0 / weightp=2 / keyint=250 / keyint_min=25 / scenecut=40 / intra_refresh=0 / rc_lookahead=50 / rc=crf / mbtree=1 / crf=21.0 / qcomp=0.60 / qpmin=0 / qpmax=69 / qpstep=4 / ip_ratio=1.40 / aq=1:1.00
Language : English
Default : Yes
Forced : No
Color range : Limited
Color primaries : BT.709
Transfer characteristics : BT.709
Matrix coefficients : BT.709

Audio
ID : 2
Format : AC-3
Format/Info : Audio Coding 3
Commercial name : Dolby Digital
Codec ID : A_AC3
Duration : 58 min 59 s
Bit rate mode : Constant
Bit rate : 192 kb/s
Channel(s) : 2 channels
Channel layout : L R
Sampling rate : 48.0 kHz
Frame rate : 31.250 FPS (1536 SPF)
Compression mode : Lossy
Stream size : 81.0 MiB (12%)
Language : English
Service kind : Complete Main
Default : Yes
Forced : No

Text
ID : 3
Format : UTF-8
Codec ID : S_TEXT/UTF8
Codec ID/Info : UTF-8 Plain Text
Language : English
Default : No
Forced : No
Screenshots

BBC - Panorama: The Race for a Vaccine (2020)

BBC - Panorama: The Race for a Vaccine (2020)

Welcome to my blog - daily update!

BBC - Panorama: The Race for a Vaccine (2020)