Tags
Language
Tags

The Secret Life Of The World's Busiest Airport (2018)

Posted By:
1080p (FullHD) / HDTV
The Secret Life Of The World's Busiest Airport (2018)

The Secret Life Of The World's Busiest Airport (2018)
HDTV | 1920x1080 | .MKV/AVC @ 3978 Kbps | 1 h 6 min | 1.94 GiB
Audio: English MP2 192 kbps, 2 channels | Subs: English
Genre: Documentary

Hartsfield-Jackson Atlanta InternationalAirportis thebusiest airporton earth and the size of a city! Over a quarter of a million passengers pass through its terminals every day to catch almost 200 planes from it’s huge and complex network of terminals.

General
Unique ID : 298060402183483099420821983816854369853 (0xE03C586AD4FF5670F940A0E1F9A9763D)
Complete name : The.Sct.Life.Of.The.Airport.2018.1080p.mkv
Format : Matroska
Format version : Version 4 / Version 2
File size : 1.94 GiB
Duration : 1 h 6 min
Overall bit rate : 4 175 kb/s

Video
ID : 1
Format : AVC
Format/Info : Advanced Video Codec
Format profile : High@L4
Format settings, CABAC : Yes
Format settings, ReFrames : 4 frames
Codec ID : V_MPEG4/ISO/AVC
Duration : 1 h 6 min
Bit rate : 3 978 kb/s
Width : 1 920 pixels
Height : 1 080 pixels
Display aspect ratio : 16:9
Frame rate mode : Variable
Frame rate : 25.057 FPS
Original frame rate : 25.000 FPS
Standard : Component
Color space : YUV
Chroma subsampling : 4:2:0
Bit depth : 8 bits
Scan type : MBAFF
Scan type, store method : Separated fields
Scan order : Top Field First
Bits/(Pixel*Frame) : 0.077
Stream size : 1.85 GiB (95%)
Default : Yes
Forced : No
Color range : Limited
Color primaries : BT.709
Transfer characteristics : BT.709
Matrix coefficients : BT.709

Audio
ID : 2
Format : MPEG Audio
Format version : Version 1
Format profile : Layer 2
Codec ID : A_MPEG/L2
Codec ID/Hint : MP2
Duration : 1 h 6 min
Bit rate mode : Constant
Bit rate : 192 kb/s
Channel(s) : 2 channels
Sampling rate : 48.0 kHz
Frame rate : 41.667 FPS (1152 spf)
Compression mode : Lossy
Stream size : 91.4 MiB (5%)
Language : English
Default : Yes
Forced : No

Text
ID : 3
Format : UTF-8
Codec ID : S_TEXT/UTF8
Codec ID/Info : UTF-8 Plain Text
Duration : 1 h 6 min
Bit rate : 104 b/s
Count of elements : 1075
Stream size : 50.5 KiB (0%)
Language : English
Default : No
Forced : No


Screenshots:

The Secret Life Of The World's Busiest Airport (2018)

The Secret Life Of The World's Busiest Airport (2018)

The Secret Life Of The World's Busiest Airport (2018)

The Secret Life Of The World's Busiest Airport (2018)