Tags
Language
Tags

Spymasters: CIA in the Crosshairs (2015)

Posted By:
SD / WEBRip IMDb
Spymasters: CIA in the Crosshairs (2015)

Spymasters: CIA in the Crosshairs (2015)
BRRip | 720 x 400 | .AVI/XviD @ 1578 Kbps | 1 h 58 min | English MP3 192 Kbps, 2 channels | 1.48 GB
Genre: Documentary, Drama, War

Documentary revealing the inner workings of the world's most powerful intelligence organization, with unprecedented access to America's spy network, all 12 living CIA directors and top agency operatives, who talk candidly about torture, secret prisons, drone warfare, alleged assassinations and the constant threat of attack, which begs the question: how far should America go to keep us safe?

General
Complete name : The.Spymasters.CIA.In.The.Crosshairs.2015.avi
Format : AVI
Format/Info : Audio Video Interleave
Format profile : OpenDML
File size : 1.48 GiB
Duration : 1 h 58 min
Overall bit rate : 1 785 kb/s
Movie name : RARBG - The.Spymasters.CIA.In.The.Crosshairs.2015.WEBRip.XviD.MP3-XVID
Writing application : Lavf58.20.100
Comment : RARBG - The.Spymasters.CIA.In.The.Crosshairs.2015.WEBRip.XviD.MP3-XVID

Video
ID : 0
Format : MPEG-4 Visual
Format profile : Simple@L5
Format settings, BVOP : No
Format settings, QPel : No
Format settings, GMC : No warppoints
Format settings, Matrix : Default (H.263)
Codec ID : XVID
Codec ID/Hint : XviD
Duration : 1 h 58 min
Bit rate : 1 578 kb/s
Width : 720 pixels
Height : 400 pixels
Display aspect ratio : 16:9
Frame rate : 29.970 (30000/1001) FPS
Color space : YUV
Chroma subsampling : 4:2:0
Bit depth : 8 bits
Scan type : Progressive
Compression mode : Lossy
Bits/(Pixel*Frame) : 0.183
Stream size : 1.31 GiB (88%)
Title : RARBG - The.Spymasters.CIA.In.The.Crosshairs.2015.WEBRip.XviD.MP3-XVID
Writing library : Lavc58.35.100

Audio
ID : 1
Format : MPEG Audio
Format version : Version 1
Format profile : Layer 3
Mode : Joint stereo
Mode extension : MS Stereo
Codec ID : 55
Codec ID/Hint : MP3
Duration : 1 h 58 min
Bit rate mode : Constant
Bit rate : 192 kb/s
Channel(s) : 2 channels
Sampling rate : 48.0 kHz
Compression mode : Lossy
Stream size : 163 MiB (11%)
Alignment : Aligned on interleaves
Interleave, duration : 24 ms (0.72 video frame)
Interleave, preload duration : 24 ms
Title : RARBG - The.Spymasters.CIA.In.The.Crosshairs.2015.WEBRip.XviD.MP3-XVID
Writing library : LAME
Screenshots

Spymasters: CIA in the Crosshairs (2015)

Spymasters: CIA in the Crosshairs (2015)

Spymasters: CIA in the Crosshairs (2015)

Welcome to my blog - daily update!

Spymasters: CIA in the Crosshairs (2015)