Tags
Language
Tags
February 2023
Su Mo Tu We Th Fr Sa
29 30 31 1 2 3 4
5 6 7 8 9 10 11
12 13 14 15 16 17 18
19 20 21 22 23 24 25
26 27 28 1 2 3 4

BBC - The Story of China: The Age of Revolution (2016)

Posted By: Tutorial
720p (HD) / HDTV
BBC - The Story of China: The Age of Revolution (2016)

BBC - The Story of China: The Age of Revolution (2016)
HDTV | 1280 x 720 | .MP4/AVC @ 3000 Kbps | 59 min 1 s | 1.30 GB
Audio: English AAC 160 Kbps, 2 channels | Subs: English
Genre: Documentary

'Revolution', Michael Wood observes, 'has been a fact of life in Chinese history'. Between 1850 and 1950, three cataclysmic revolutions shook China to the core, but out of them, today's China emerged. The film begins in Canton with the meeting of a US missionary and a Chinese student. Inspired by the Christian story and calling himself God's second son, Hong unleashed the bloodiest war of the 19th century, the Taiping Rebellion. Wood heads into wild mountain villages in the south, where the revolution began. As imperial China weakened, foreign influence grew. Treaty ports expanded, bringing growth and wealth, trams, railways and western sensibilities. But this provoked another surge of violence, the Boxer Rebellion, an attack against the foreigners, which was crushed by those same foreigners, who extorted a huge indemnity - $60 billion in today's money. Then in 1912, the empire fell, and many groups contested China's future. In World War I, China sent 100,000 men to the western front, only to be humiliated at Versailles when German colonies in China were handed to Japan. Between the two world wars, the disparity between rich and poor, city and countryside increased. We visit Hong Kong's Peninsular Hotel in the jazz age and then follow Mao on the Long March to Yan'an, the heartland of revolution. World War II came to China two years earlier than it did in the west. Wood talks to a survivor of the Japanese massacre of Nanjing in 1937 and then charts the triumph of the communists, before ending the story with Mao's death and the boom time of the last 30 years. The series ends with the warmth of the Chinese family and, at Beijing's Altar of Heaven, a final haunting glimpse of eternal China.

General
Complete name : BBC.The.Story.of.China.The.Age.of.Revolution.mp4
Format : MPEG-4
Format profile : Base Media
Codec ID : isom (isom)
File size : 1.30 GiB
Duration : 59 min 1 s
Overall bit rate mode : Variable
Overall bit rate : 3 160 kb/s
Encoded date : UTC 2016-02-26 12:30:14
Tagged date : UTC 2016-02-26 12:30:14

Video
ID : 1
Format : AVC
Format/Info : Advanced Video Codec
Format profile : High@L4.1
Format settings, CABAC : Yes
Format settings, ReFrames : 4 frames
Codec ID : avc1
Codec ID/Info : Advanced Video Coding
Duration : 59 min 1 s
Bit rate : 3 000 kb/s
Maximum bit rate : 8 965 kb/s
Width : 1 280 pixels
Height : 720 pixels
Display aspect ratio : 16:9
Frame rate mode : Constant
Frame rate : 25.000 FPS
Color space : YUV
Chroma subsampling : 4:2:0
Bit depth : 8 bits
Scan type : Progressive
Bits/(Pixel*Frame) : 0.130
Stream size : 1.24 GiB (95%)
Title : BBC.The.Story.of.China.The.Age.of.Revolution.720p.HDTV.x264.AAC..org.mp4
Writing library : x264 core 142 r2479 dd79a61
Encoding settings : cabac=1 / ref=1 / deblock=1:0:0 / analyse=0x3:0x3 / me=dia / subme=1 / psy=1 / psy_rd=1.00:0.00 / mixed_ref=0 / me_range=16 / chroma_me=1 / trellis=0 / 8x8dct=1 / cqm=0 / deadzone=21,11 / fast_pskip=1 / chroma_qp_offset=0 / threads=3 / lookahead_threads=1 / sliced_threads=0 / nr=0 / decimate=1 / interlaced=0 / bluray_compat=0 / constrained_intra=0 / bframes=3 / b_pyramid=2 / b_adapt=1 / b_bias=0 / direct=1 / weightb=1 / open_gop=0 / weightp=1 / keyint=250 / keyint_min=25 / scenecut=40 / intra_refresh=0 / rc_lookahead=0 / rc=abr / mbtree=0 / bitrate=3000 / ratetol=1.0 / qcomp=0.60 / qpmin=0 / qpmax=69 / qpstep=4 / vbv_maxrate=62500 / vbv_bufsize=78125 / nal_hrd=none / filler=0 / ip_ratio=1.40 / pb_ratio=1.30 / aq=1:1.00
Encoded date : UTC 2016-02-26 11:10:33
Tagged date : UTC 2016-02-26 12:34:24
Color range : Limited
Color primaries : BT.709
Transfer characteristics : BT.709
Matrix coefficients : BT.709

Audio
ID : 2
Format : AAC
Format/Info : Advanced Audio Codec
Format profile : LC
Codec ID : 40
Duration : 59 min 1 s
Bit rate mode : Variable
Bit rate : 160 kb/s
Maximum bit rate : 183 kb/s
Channel(s) : 2 channels
Channel positions : Front: L R
Sampling rate : 48.0 kHz
Frame rate : 46.875 FPS (1024 spf)
Compression mode : Lossy
Stream size : 67.7 MiB (5%)
Title : BBC.The.Story.of.China.The.Age.of.Revolution.720p.HDTV.x264.AAC..org.mp4
Language : English
Encoded date : UTC 2016-02-26 12:33:00
Tagged date : UTC 2016-02-26 12:34:24

Text
ID : 3
Format : Timed Text
Codec ID : tx3g
Duration : 58 min 26 s
Bit rate mode : Variable
Bit rate : 77 b/s
Stream size : 33.1 KiB (0%)
Title : BBC.The.Story.of.China.The.Age.of.Revolution.720p.HDTV.x264.AAC..org.srt
Forced : No
Encoded date : UTC 2016-02-26 12:34:24
Tagged date : UTC 2016-02-26 12:34:24
Screenshots

BBC - The Story of China: The Age of Revolution (2016)

Welcome to my blog - daily update!