Tags
Language
Tags

UKTV - The Umbrella Assassin (2006)

Posted By: Tutorial
SD / DVDRip
UKTV - The Umbrella Assassin (2006)

UKTV - The Umbrella Assassin (2006)
PDTV | 960 x 540 | .MKV/AVC @ 1563 Kbps | 44 min 11 s | 535 MB
Audio: English AAC 128 Kbps, 2 channels | Subs: None
Genre: Documentary

Georgi Markov's death by poisoned umbrella in 1978 remains unsolved, but it is thought the Bulgarian dissident writer was silenced by the KGB. Hear more about this Cold War mystery.

General
Unique ID : 41654697149104220649323792497479386679 (0x1F5667219892E282464B8EEEF7360637)
Complete name : The.Umbrella.Assassin.mkv
Format : Matroska
Format version : Version 4 / Version 2
File size : 535 MiB
Duration : 44 min 11 s
Overall bit rate : 1 693 kb/s
Movie name : The Umbrella Assassin [MVGroup]
Encoded date : UTC 2019-01-10 16:57:17
Writing application : mkvmerge v30.1.0 ('Forever And More') 64-bit
Writing library : libebml v1.3.6 + libmatroska v1.4.9

Video
ID : 1
Format : AVC
Format/Info : Advanced Video Codec
Format profile : Main@L3.1
Format settings, CABAC : Yes
Format settings, ReFrames : 4 frames
Codec ID : V_MPEG4/ISO/AVC
Duration : 44 min 11 s
Bit rate : 1 563 kb/s
Width : 960 pixels
Height : 540 pixels
Display aspect ratio : 16:9
Frame rate mode : Constant
Frame rate : 25.000 FPS
Color space : YUV
Chroma subsampling : 4:2:0
Bit depth : 8 bits
Scan type : Progressive
Bits/(Pixel*Frame) : 0.121
Stream size : 494 MiB (92%)
Writing library : x264 core 157 r2935 545de2f
Encoding settings : cabac=1 / ref=4 / deblock=1:0:0 / analyse=0x1:0x111 / me=umh / subme=9 / psy=1 / psy_rd=1.00:0.00 / mixed_ref=1 / me_range=16 / chroma_me=1 / trellis=1 / 8x8dct=0 / cqm=0 / deadzone=21,11 / fast_pskip=0 / chroma_qp_offset=-2 / threads=17 / lookahead_threads=1 / sliced_threads=0 / nr=0 / decimate=1 / interlaced=0 / bluray_compat=0 / constrained_intra=0 / bframes=6 / b_pyramid=2 / b_adapt=2 / b_bias=0 / direct=1 / weightb=1 / open_gop=0 / weightp=2 / keyint=250 / keyint_min=25 / scenecut=40 / intra_refresh=0 / rc_lookahead=40 / rc=crf / mbtree=1 / crf=21.0 / qcomp=0.60 / qpmin=0 / qpmax=69 / qpstep=4 / ip_ratio=1.40 / aq=1:1.00
Language : English
Default : Yes
Forced : No

Audio
ID : 2
Format : AAC
Format/Info : Advanced Audio Codec
Format profile : LC
Codec ID : A_AAC
Duration : 44 min 11 s
Bit rate : 128 kb/s
Channel(s) : 2 channels
Channel positions : Front: L R
Sampling rate : 48.0 kHz
Frame rate : 46.875 FPS (1024 spf)
Compression mode : Lossy
Delay relative to video : 9 ms
Stream size : 40.3 MiB (8%)
Language : English
Default : Yes
Forced : No
Screenshots

UKTV - The Umbrella Assassin (2006)

UKTV - The Umbrella Assassin (2006)

UKTV - The Umbrella Assassin (2006)

Welcome to my blog - daily update!

UKTV - The Umbrella Assassin (2006)