Tags
Language
Tags

The Voynich Code: The World's Most Mysterious Manuscript (2010)

Posted By: notbanned
1080p (FullHD) / HDTV
The Voynich Code: The World's Most Mysterious Manuscript (2010)

The Voynich Code: The World's Most Mysterious Manuscript (2010)
HDTV | 1920x1080 | .MKV/AVC @ 2363 Kbps | 50 min 20 s | 908 MiB
Audio: English AAC 157 kbps, 2 channels | Subs: English
Genre: Documentary

Since the beginning of time people have searched for means to keep certain communication private, over the years this developed into encoding information with cyphers, this is especially true with regards to military communications.

However, this being said most of these cyphers given enough time and resources are eventually cracked and decoded but among all of histories cryptic writings one has stood out from the rest. For centuries this text has withstood all attempts to unveil it’s secrets, it is known as The Voynich Manuscript.

It is the worlds most mysterious book, written by an unknown author in an absolutely singular alphabet and illustrated with puzzling images but what secrets are hidden between the lines of this book? This film attempts to unravel some of this mystery and with the help of experts we are given a glimpse into the manuscript and what secrets it is concealing from the world.

General
Unique ID : 158219684811335134727651497738581761555 (0x770800BC8B7B2A6ABD678ABA5BDEDE13)
Complete name : The.Voynich.Code-The.Worlds.Most.Mysterious.Manuscript.2010.1080p.mkv
Format : Matroska
Format version : Version 4 / Version 2
File size : 908 MiB
Duration : 50 min 20 s
Overall bit rate : 2 523 kb/s

Video
ID : 1
Format : AVC
Format/Info : Advanced Video Codec
Format profile : High@L4.1
Format settings, CABAC : Yes
Format settings, ReFrames : 4 frames
Codec ID : V_MPEG4/ISO/AVC
Duration : 50 min 20 s
Bit rate : 2 363 kb/s
Width : 1 920 pixels
Height : 1 080 pixels
Display aspect ratio : 16:9
Frame rate mode : Constant
Frame rate : 25.000 FPS
Color space : YUV
Chroma subsampling : 4:2:0
Bit depth : 8 bits
Scan type : Progressive
Bits/(Pixel*Frame) : 0.046
Stream size : 851 MiB (94%)
Writing library : x264 core 161 r3048 b86ae3c
Encoding settings : cabac=1 / ref=4 / deblock=1:-2:-2 / analyse=0x3:0x133 / me=umh / subme=9 / psy=1 / psy_rd=1.00:0.00 / mixed_ref=1 / me_range=16 / chroma_me=1 / trellis=2 / 8x8dct=1 / cqm=0 / deadzone=21,11 / fast_pskip=1 / chroma_qp_offset=-2 / threads=12 / lookahead_threads=1 / sliced_threads=0 / nr=0 / decimate=1 / interlaced=0 / bluray_compat=0 / constrained_intra=0 / bframes=3 / b_pyramid=2 / b_adapt=2 / b_bias=0 / direct=3 / weightb=1 / open_gop=0 / weightp=2 / keyint=250 / keyint_min=24 / scenecut=40 / intra_refresh=0 / rc_lookahead=60 / rc=crf / mbtree=1 / crf=21.0 / qcomp=0.60 / qpmin=0 / qpmax=69 / qpstep=4 / ip_ratio=1.40 / aq=1:1.00
Default : Yes
Forced : No

Audio
ID : 2
Format : AAC
Format/Info : Advanced Audio Codec
Format profile : LC
Codec ID : A_AAC
Duration : 50 min 20 s
Bit rate : 157 kb/s
Channel(s) : 2 channels
Channel positions : Front: L R
Sampling rate : 48.0 kHz
Frame rate : 46.875 FPS (1024 spf)
Compression mode : Lossy
Stream size : 56.7 MiB (6%)
Language : English
Default : Yes
Forced : No

Text
ID : 3
Format : UTF-8
Codec ID : S_TEXT/UTF8
Codec ID/Info : UTF-8 Plain Text
Duration : 49 min 24 s
Bit rate : 80 b/s
Count of elements : 735
Stream size : 29.2 KiB (0%)
Language : English
Default : No
Forced : No


Screenshots:

The Voynich Code: The World's Most Mysterious Manuscript (2010)

The Voynich Code: The World's Most Mysterious Manuscript (2010)

The Voynich Code: The World's Most Mysterious Manuscript (2010)

The Voynich Code: The World's Most Mysterious Manuscript (2010)