Tags
Language
Tags

The Walking Dead S08E03 (2017)

Posted By: JohnSmith
The Walking Dead S08E03 (2017)

The Walking Dead S08E03 (2017)
HDRip | MKV / AVC@1500 kb/s | 720x400 | 41mn | 555 MB | English: AC3, 384 kb/s (6 ch)
WEB-DL 720p | MKV / AVC@4283 kb/s | 1280x720 | 41mn | 1.44 GB
English: AC3, 640 kb/s (6 ch) | Subtitles: English
WEB-DL 1080p | MKV / AVC@14 Mb/s | 1920x1080 | 41mn | 4.30 GB
English: AC3, 640 kb/s (6 ch) | Subtitles: English
Genre: Drama | Horror | Thriller

Sheriff Deputy Rick Grimes gets shot in combat and awakens to a zombie apocalypse. He meets a group on the outskirts of Atlanta and soon, becomes their leader. The walkers (what they call zombies) feed on the living, so they try to move to different and safer locations to survive.

IMDB - Nominated for 1 Golden Globe. Another 63 wins & 175 nominations.



General
Unique ID : 174609938701592754891174506455490231245 (0x835CA6A4E0261BD8B1822507BECDFBCD)
Complete name : A:\The.Walking.Dead.S08E03.HDRip.mkv
Format : Matroska
Format version : Version 4 / Version 2
File size : 555 MiB
Duration : 41 min 8 s
Overall bit rate : 1 886 kb/s
Movie name : The Walking Dead 08x03 (Monsters) - release by messafan for CasStudio
Encoded date : UTC 2017-11-06 08:44:01
Writing application : mkvmerge v8.3.0 ('Over the Horizon') 64bit
Writing library : libebml v1.3.1 + libmatroska v1.4.2

Video
ID : 1
Format : AVC
Format/Info : Advanced Video Codec
Format profile : Baseline@L3.1
Format settings, CABAC : No
Format settings, ReFrames : 1 frame
Codec ID : V_MPEG4/ISO/AVC
Duration : 41 min 8 s
Bit rate : 1 500 kb/s
Width : 720 pixels
Height : 400 pixels
Display aspect ratio : 16:9
Frame rate mode : Constant
Frame rate : 23.976 (24000/1001) FPS
Color space : YUV
Chroma subsampling : 4:2:0
Bit depth : 8 bits
Scan type : Progressive
Bits/(Pixel*Frame) : 0.217
Stream size : 441 MiB (80%)
Writing library : x264 core 148 r2708 86b7198
Encoding settings : cabac=0 / ref=1 / deblock=1:0:0 / analyse=0x1:0x111 / me=hex / subme=2 / psy=1 / psy_rd=1.00:0.00 / mixed_ref=0 / me_range=16 / chroma_me=1 / trellis=0 / 8x8dct=0 / cqm=0 / deadzone=21,11 / fast_pskip=1 / chroma_qp_offset=0 / threads=12 / lookahead_threads=3 / sliced_threads=0 / nr=0 / decimate=1 / interlaced=0 / bluray_compat=0 / constrained_intra=0 / bframes=0 / weightp=0 / keyint=240 / keyint_min=24 / scenecut=40 / intra_refresh=0 / rc_lookahead=10 / rc=2pass / mbtree=1 / bitrate=1500 / ratetol=1.0 / qcomp=0.60 / qpmin=0 / qpmax=69 / qpstep=4 / cplxblur=20.0 / qblur=0.5 / vbv_maxrate=14000 / vbv_bufsize=14000 / nal_hrd=none / filler=0 / ip_ratio=1.40 / aq=1:1.00
Default : Yes
Forced : No
Color range : Limited
Color primaries : BT.709
Transfer characteristics : BT.709
Matrix coefficients : BT.709

Audio
ID : 2
Format : AC-3
Format/Info : Audio Coding 3
Format settings, Endianness : Big
Codec ID : A_AC3
Duration : 41 min 8 s
Bit rate mode : Constant
Bit rate : 384 kb/s
Channel(s) : 6 channels
Channel positions : Front: L C R, Side: L R, LFE
Sampling rate : 48.0 kHz
Frame rate : 31.250 FPS (1536 spf)
Bit depth : 16 bits
Compression mode : Lossy
Delay relative to video : -5 ms
Stream size : 113 MiB (20%)
Title : Surround
Language : English
Service kind : Complete Main
Default : Yes
Forced : No





General
Unique ID : 244605905206707555339751719623631515592 (0xB805623CDC3C2D5985884928B28B2FC8)
Complete name : D:\Downloads\The.Walking.Dead.S08E03.Monsters.720p.AMZN.WEB-DL.DDP5.1.H.264-CasStudio .mkv
Format : Matroska
Format version : Version 4 / Version 2
File size : 1.44 GiB
Duration : 41 min 8 s
Overall bit rate mode : Variable
Overall bit rate : 5 022 kb/s
Movie name : The Walking Dead 08x03 (Monsters) - release by messafan for CasStudio
Encoded date : UTC 2017-11-06 08:23:33
Writing application : mkvmerge v6.7.0 ('Back to the Ground') 64bit built on Jan 8 2014 15:10:52
Writing library : libebml v1.3.0 + libmatroska v1.4.1

Video
ID : 1
Format : AVC
Format/Info : Advanced Video Codec
Format profile : High@L3.1
Format settings, CABAC : Yes
Format settings, ReFrames : 5 frames
Codec ID : V_MPEG4/ISO/AVC
Duration : 41 min 8 s
Bit rate mode : Variable
Bit rate : 4 283 kb/s
Maximum bit rate : 4 500 kb/s
Width : 1 280 pixels
Height : 720 pixels
Display aspect ratio : 16:9
Frame rate mode : Constant
Frame rate : 23.976 (24000/1001) FPS
Color space : YUV
Chroma subsampling : 4:2:0
Bit depth : 8 bits
Scan type : Progressive
Bits/(Pixel*Frame) : 0.194
Stream size : 1.23 GiB (85%)
Default : Yes
Forced : No
Color range : Limited
Color primaries : BT.709
Transfer characteristics : BT.709
Matrix coefficients : BT.709

Audio
ID : 2
Format : E-AC-3
Format/Info : Enhanced Audio Coding 3
Format settings, Endianness : Big
Codec ID : A_EAC3
Duration : 41 min 8 s
Bit rate mode : Constant
Bit rate : 640 kb/s
Channel(s) : 6 channels
Channel positions : Front: L C R, Side: L R, LFE
Sampling rate : 48.0 kHz
Frame rate : 187.500 FPS (256 spf)
Compression mode : Lossy
Stream size : 188 MiB (13%)
Language : English
Service kind : Complete Main
Default : Yes
Forced : No

Text
ID : 3
Format : UTF-8
Codec ID : S_TEXT/UTF8
Codec ID/Info : UTF-8 Plain Text
Title : SDH
Language : English
Default : No
Forced : No





General
Unique ID : 245258679194031583477174411590480637044 (0xB8831A7AEAC18C8F80D6CE69D2032C74)
Complete name : D:\Downloads\The.Walking.Dead.S08E03.Monsters.1080p.AMZN.WEB-DL.DD+5.1.H.264-CasStudio.mkv
Format : Matroska
Format version : Version 4 / Version 2
File size : 4.30 GiB
Duration : 41 min 8 s
Overall bit rate mode : Variable
Overall bit rate : 15.0 Mb/s
Movie name : The Walking Dead 08x03 (Monsters) - release by messafan for CasStudio
Encoded date : UTC 2017-11-06 08:17:24
Writing application : mkvmerge v6.7.0 ('Back to the Ground') 64bit built on Jan 8 2014 15:10:52
Writing library : libebml v1.3.0 + libmatroska v1.4.1

Video
ID : 1
Format : AVC
Format/Info : Advanced Video Codec
Format profile : High@L4
Format settings, CABAC : Yes
Format settings, ReFrames : 4 frames
Codec ID : V_MPEG4/ISO/AVC
Duration : 41 min 8 s
Bit rate mode : Variable
Bit rate : 14.0 Mb/s
Maximum bit rate : 15.0 Mb/s
Width : 1 920 pixels
Height : 1 080 pixels
Display aspect ratio : 16:9
Frame rate mode : Constant
Frame rate : 23.976 (24000/1001) FPS
Color space : YUV
Chroma subsampling : 4:2:0
Bit depth : 8 bits
Scan type : Progressive
Bits/(Pixel*Frame) : 0.282
Stream size : 4.03 GiB (94%)
Default : Yes
Forced : No
Color range : Limited
Color primaries : BT.709
Transfer characteristics : BT.709
Matrix coefficients : BT.709

Audio
ID : 2
Format : E-AC-3
Format/Info : Enhanced Audio Coding 3
Format settings, Endianness : Big
Codec ID : A_EAC3
Duration : 41 min 8 s
Bit rate mode : Constant
Bit rate : 640 kb/s
Channel(s) : 6 channels
Channel positions : Front: L C R, Side: L R, LFE
Sampling rate : 48.0 kHz
Frame rate : 187.500 FPS (256 spf)
Compression mode : Lossy
Stream size : 188 MiB (4%)
Language : English
Service kind : Complete Main
Default : Yes
Forced : No

Text
ID : 3
Format : UTF-8
Codec ID : S_TEXT/UTF8
Codec ID/Info : UTF-8 Plain Text
Title : SDH
Language : English
Default : No
Forced : No




Screenshots HDRip

The Walking Dead S08E03 (2017)

The Walking Dead S08E03 (2017)

The Walking Dead S08E03 (2017)


Screenshots WEB-DL 720p

The Walking Dead S08E03 (2017)

The Walking Dead S08E03 (2017)

The Walking Dead S08E03 (2017)


Screenshots WEB-DL 1080p

The Walking Dead S08E03 (2017)

The Walking Dead S08E03 (2017)

The Walking Dead S08E03 (2017)