The War - Il pianeta delle scimmie (2017)

Posted By: JohnSmith
The War - Il pianeta delle scimmie (2017)

The War - Il pianeta delle scimmie / War for the Planet of the Apes (2017)
BDRip MD | MKV / XviD@1600 kb/s | 720x302 | 2h 20mn | 1.69 GB
Italian (dubbed): MP3, 128 kb/s (2 ch) | Subtitles: Italian (forced)
Genre: Action | Adventure | Drama | Sci-Fi | Thriller

Cesare e le sue scimmie sono costrette a un conflitto mortale con un esercito di umani guidato da uno spietato colonnello. Dopo che le scimmie subiscono delle perditi inimmaginabili, Cesare lotta contro i suoi istinti più oscuri e inizia la sua mitica ricerca di vendetta. Una volta faccia a faccia, Cesare e il colonnello daranno vita a un'epica battaglia che determinerà il destino delle loro rispettive specie e il futuro del pianeta.




General
Unique ID : 252749372739501021177859337494978595401 (0xBE25C22F92BDF81DBE81739CDEA38A49)
Complete name : A:\The.War.Il.Pianeta.Delle.Scimmie.2017.iTALiAN.MD.BDRip.mkv
Format : Matroska
Format version : Version 4 / Version 2
File size : 1.69 GiB
Duration : 2 h 20 min
Overall bit rate : 1 727 kb/s
Encoded date : UTC 2017-10-12 05:51:05
Writing application : mkvmerge v8.3.0 ('Over the Horizon') 64bit
Writing library : libebml v1.3.1 + libmatroska v1.4.2

Video
ID : 1
Format : MPEG-4 Visual
Format profile : Simple@L5
Format settings, BVOP : No
Format settings, QPel : No
Format settings, GMC : No warppoints
Format settings, Matrix : Default (H.263)
Codec ID : V_MS/VFW/FOURCC / XVID
Codec ID/Hint : XviD
Duration : 2 h 20 min
Bit rate : 1 598 kb/s
Width : 720 pixels
Height : 302 pixels
Display aspect ratio : 2.40:1
Frame rate mode : Constant
Frame rate : 23.976 FPS
Color space : YUV
Chroma subsampling : 4:2:0
Bit depth : 8 bits
Scan type : Progressive
Compression mode : Lossy
Bits/(Pixel*Frame) : 0.307
Stream size : 1.56 GiB (93%)
Writing library : Lavc57.89.100
Default : Yes
Forced : No

Audio
ID : 2
Format : MPEG Audio
Format version : Version 1
Format profile : Layer 3
Mode : Joint stereo
Mode extension : MS Stereo
Codec ID : A_MPEG/L3
Codec ID/Hint : MP3
Duration : 2 h 18 min
Bit rate mode : Constant
Bit rate : 128 kb/s
Channel(s) : 2 channels
Sampling rate : 48.0 kHz
Frame rate : 41.667 FPS (1152 spf)
Compression mode : Lossy
Delay relative to video : 2 s 200 ms
Stream size : 127 MiB (7%)
Writing library : LAME3.99r
Encoding settings : -m j -V 4 -q 3 -lowpass 17 -b 128
Language : Italian
Default : Yes
Forced : No

Text
ID : 3
Format : UTF-8
Codec ID : S_TEXT/UTF8
Codec ID/Info : UTF-8 Plain Text
Duration : 1 h 51 min
Bit rate : 6 b/s
Count of elements : 202
Stream size : 5.57 KiB (0%)
Title : Forced
Language : Italian
Default : Yes
Forced : Yes




Screenshots

The War - Il pianeta delle scimmie (2017)

The War - Il pianeta delle scimmie (2017)

The War - Il pianeta delle scimmie (2017)