Tags
Language
Tags

NG. - The Way Of The Cheetah (2022)

Posted By: notbanned
1080p (FullHD) / HDTV
NG. - The Way Of The Cheetah (2022)

NG. - The Way Of The Cheetah (2022)
HDTV | 1920x1080 | .MKV/AVC @ 6428 Kbps | 43 min 57 s | 2.01 GiB
Audio: English MP2 128 kbps, 2 channels | Subs: None
Genre: Documentary

Cheetah are the most fragile cats physically and now there are under 7,000 left in the world. Our story tells of Immani, a sleek female with 4 cubs as they navigate the plains of the Mara ecosystem - and living here is also a coalition of 5 males; to save her cubs, Immani must avoid them. A film by Dereck and Beverly Joubert who have made dozens of big cat films, but never one on cheetahs.

General
Unique ID : 156145952060014755402740296887842575036 (0x75789DD16B26B2EBDB8BF5927F1712BC)
Complete name : The.Way.Of.The.Cheetah.2022.1080p.mkv
Format : Matroska
Format version : Version 4 / Version 2
File size : 2.01 GiB
Duration : 43 min 57 s
Overall bit rate : 6 559 kb/s

Video
ID : 1
Format : AVC
Format/Info : Advanced Video Codec
Format profile : High@L4
Format settings, CABAC : Yes
Format settings, ReFrames : 4 frames
Codec ID : V_MPEG4/ISO/AVC
Duration : 43 min 57 s
Bit rate : 6 428 kb/s
Width : 1 920 pixels
Height : 1 080 pixels
Display aspect ratio : 16:9
Frame rate mode : Variable
Frame rate : 50.000 FPS
Original frame rate : 25.000 FPS
Standard : Component
Color space : YUV
Chroma subsampling : 4:2:0
Bit depth : 8 bits
Scan type : Interlaced
Scan type, store method : Separated fields
Scan order : Top Field First
Bits/(Pixel*Frame) : 0.062
Stream size : 1.97 GiB (98%)
Default : Yes
Forced : No
Color range : Limited
Color primaries : BT.709
Transfer characteristics : BT.709
Matrix coefficients : BT.709

Audio
ID : 2
Format : MPEG Audio
Format version : Version 1
Format profile : Layer 2
Codec ID : A_MPEG/L2
Codec ID/Hint : MP2
Duration : 43 min 57 s
Bit rate mode : Constant
Bit rate : 128 kb/s
Channel(s) : 2 channels
Sampling rate : 48.0 kHz
Frame rate : 41.667 FPS (1152 spf)
Compression mode : Lossy
Stream size : 40.2 MiB (2%)
Language : English
Default : Yes
Forced : No


Screenshots:

NG. - The Way Of The Cheetah (2022)

NG. - The Way Of The Cheetah (2022)

NG. - The Way Of The Cheetah (2022)

NG. - The Way Of The Cheetah (2022)