Tags
Language
Tags

Channel 5 - The Yorkshire Steam Railway: All Aboard - Series 1 (2017)

Posted By: Tutorial
720p (HD) / HDTV
Channel 5 - The Yorkshire Steam Railway: All Aboard - Series 1 (2017)

Channel 5 - The Yorkshire Steam Railway: All Aboard - Series 1 (2017)
HDTV | 1280 x 720 | .MP4/AVC @ 2950 Kbps | 3x~43mn | 2.83 GB
Audio: English AAC 160 Kbps, 2 channels | Subs: None
Genre: Documentary

Welcome to the worlds most popular heritage steam railway.
All Aboard the Yorkshire Express goes behind the scenes at the North Yorkshire Moors Railway; taking us back in time to the golden age of steam. This year they're celebrating their fiftieth anniversary and we join them as they welcome coach trips, wedding parties and train spotters alike in what they hope will be the railway's busiest year yet.

Part 1:
To celebrate its 50th anniversary, the railway has hired headlining steam engine Royal Scot, but she has a problem with her boiler, carriages that haven't been serviced in five years, and no-one even knows if she will fit the line.

Part 2:
The marketing manager targets teachers in hope they'll return with students, Chris reveals how some bridges are in desperate need of repair, and Piglet has a race against time to fix an engine which is hoped be on display for the Tour de Yorkshire.

Part 3:
General manager Chris calls a crisis meeting, believing the only chance the railway has of making it through the busy summer season is if an overhaul of Repton - a 1934 Schools-class engine - is completed. This engine has been undergoing restoration for the past five years, but now it is going to be all-hands-on-deck to try and get it back on the rails quickly.

General
Complete name : Ch5.The.Yorkshire.Steam.Railway.All.Aboard.Series.1.1of3.mp4
Format : MPEG-4
Format profile : Base Media / Version 2
Codec ID : mp42 (mp42/isom/avc1)
File size : 965 MiB
Duration : 43 min 27 s
Overall bit rate mode : Variable
Overall bit rate : 3 105 kb/s
Encoded date : UTC 2018-03-17 23:52:11
Tagged date : UTC 2018-03-18 00:34:38
Writing application : HandBrake 0.9.9 2013052900

Video
ID : 1
Format : AVC
Format/Info : Advanced Video Codec
Format profile : High@L4.1
Format settings, CABAC : Yes
Format settings, ReFrames : 4 frames
Codec ID : avc1
Codec ID/Info : Advanced Video Coding
Duration : 43 min 27 s
Bit rate : 2 950 kb/s
Width : 1 280 pixels
Height : 720 pixels
Display aspect ratio : 16:9
Frame rate mode : Constant
Frame rate : 25.000 FPS
Color space : YUV
Chroma subsampling : 4:2:0
Bit depth : 8 bits
Scan type : Progressive
Bits/(Pixel*Frame) : 0.128
Stream size : 914 MiB (95%)
Writing library : x264 core 130 r2273 b3065e6
Encoding settings : cabac=1 / ref=1 / deblock=1:0:0 / analyse=0x3:0x113 / me=hex / subme=2 / psy=1 / psy_rd=1.00:0.00 / mixed_ref=0 / me_range=16 / chroma_me=1 / trellis=0 / 8x8dct=1 / cqm=0 / deadzone=21,11 / fast_pskip=1 / chroma_qp_offset=0 / threads=6 / lookahead_threads=2 / sliced_threads=0 / nr=0 / decimate=1 / interlaced=0 / bluray_compat=0 / constrained_intra=0 / bframes=3 / b_pyramid=2 / b_adapt=1 / b_bias=0 / direct=1 / weightb=1 / open_gop=0 / weightp=1 / keyint=250 / keyint_min=25 / scenecut=40 / intra_refresh=0 / rc_lookahead=10 / rc=abr / mbtree=1 / bitrate=2950 / ratetol=1.0 / qcomp=0.60 / qpmin=0 / qpmax=69 / qpstep=4 / vbv_maxrate=62500 / vbv_bufsize=78125 / nal_hrd=none / ip_ratio=1.40 / aq=1:1.00
Encoded date : UTC 2018-03-17 23:52:11
Tagged date : UTC 2018-03-18 00:34:38
Color range : Limited
Color primaries : BT.709
Transfer characteristics : BT.709
Matrix coefficients : BT.709

Audio
ID : 2
Format : AAC
Format/Info : Advanced Audio Codec
Format profile : LC
Codec ID : 40
Duration : 43 min 27 s
Bit rate mode : Variable
Bit rate : 160 kb/s
Maximum bit rate : 265 kb/s
Channel(s) : 2 channels
Channel positions : Front: L R
Sampling rate : 48.0 kHz
Frame rate : 46.875 FPS (1024 spf)
Compression mode : Lossy
Stream size : 49.7 MiB (5%)
Title : Stereo
Language : English
Encoded date : UTC 2018-03-17 23:52:11
Tagged date : UTC 2018-03-18 00:34:37
Screenshots

Channel 5 - The Yorkshire Steam Railway: All Aboard - Series 1 (2017)

Channel 5 - The Yorkshire Steam Railway: All Aboard - Series 1 (2017)

Channel 5 - The Yorkshire Steam Railway: All Aboard - Series 1 (2017)

Welcome to my blog - daily update!

Channel 5 - The Yorkshire Steam Railway: All Aboard - Series 1 (2017)