Tags
Language
Tags

The Barefoot Contessa (1954) [Masters of Cinema - Eureka!]

Posted By: RSU75
1080p (FullHD) / BDRip IMDb
The Barefoot Contessa (1954) [Masters of Cinema - Eureka!]

The Barefoot Contessa (1954) [Masters of Cinema - Eureka!, #186]
BDRip 1080p | MKV | AVC, 1920x1040, ~ 4.1 Mbps | 2hr 10mn | 5.59 GB
English: DTS, 6 ch, 1510 kbps \ English (x 2): AC3, 2 ch, 256 kbps
Subtitles: English
Genre: Crime, Drama, Mystery



Director: Joseph L. Mankiewicz
Writer: Joseph L. Mankiewicz
Stars: Humphrey Bogart, Ava Gardner, Edmond O'Brien

At Maria Vargas' funeral, several people recall who she was and the impact she had on them. Harry Dawes was a not very successful writer/director when he and movie producer Kirk Edwards scouted her at a shabby nightclub where she worked as a flamenco dancer. He convinces her to take a chance on acting and her first film is a huge hit. PR man Oscar Muldoon remembers when Maria was in court supporting her father who was accused of murdering her mother. It was Maria's testimony that got him off and she was a bigger star than ever. Alberto Bravano, one of the richest men in South America, sets his sights on Maria and she goes off with him - as much to make Edwards angry as anything - but he treats her badly. When she meets Count Vincenzo Torlato-Favrini they fall deeply in love. They are married but theirs is not to be a happy life.

Extras:
- Audio commentary with film historians Julie Kirgo and David Del Valle




General
Unique ID : 194154246325892056854869071415713033105 (0x9210BF682576D07F9C0FD4FF389D6B91)
Complete name : F:\TheBarefootContessa.1954.MoC.1p\TheBarefootContessa.1954.MoC.1p.mkv
Format : Matroska
Format version : Version 4 / Version 2
File size : 5.59 GiB
Duration : 2 h 10 min
Overall bit rate : 6 150 kb/s
Movie name : Release RSU75
Encoded date : UTC 2019-10-15 04:13:33
Writing application : mkvmerge v6.6.0 ('The Edge Of The In Between') built on Dec 1 2013 17:55:00
Writing library : libebml v1.3.0 + libmatroska v1.4.1

Video
ID : 1
Format : AVC
Format/Info : Advanced Video Codec
Format profile : High@L4.1
Format settings : CABAC / 4 Ref Frames
Format settings, CABAC : Yes
Format settings, ReFrames : 4 frames
Codec ID : V_MPEG4/ISO/AVC
Duration : 2 h 10 min
Bit rate : 4 100 kb/s
Width : 1 920 pixels
Height : 1 040 pixels
Display aspect ratio : 1.85:1
Frame rate mode : Constant
Frame rate : 23.976 (23976/1000) FPS
Color space : YUV
Chroma subsampling : 4:2:0
Bit depth : 8 bits
Scan type : Progressive
Bits/(Pixel*Frame) : 0.086
Stream size : 3.64 GiB (65%)
Writing library : x264 core 148 r2643 5c65704
Encoding settings : cabac=1 / ref=4 / deblock=1:0:0 / analyse=0x3:0x113 / me=umh / subme=8 / psy=1 / psy_rd=1.00:0.00 / mixed_ref=1 / me_range=24 / chroma_me=1 / trellis=1 / 8x8dct=1 / cqm=0 / deadzone=21,11 / fast_pskip=1 / chroma_qp_offset=-2 / threads=3 / lookahead_threads=1 / sliced_threads=0 / nr=0 / decimate=1 / interlaced=0 / bluray_compat=0 / constrained_intra=0 / bframes=3 / b_pyramid=0 / b_adapt=2 / b_bias=0 / direct=3 / weightb=1 / open_gop=0 / weightp=2 / keyint=250 / keyint_min=25 / scenecut=40 / intra_refresh=0 / rc_lookahead=40 / rc=abr / mbtree=1 / bitrate=4100 / ratetol=1.0 / qcomp=0.60 / qpmin=10 / qpmax=51 / qpstep=4 / ip_ratio=1.41 / aq=1:1.00
Language : English
Default : Yes
Forced : No

Audio #1
ID : 2
Format : DTS
Format/Info : Digital Theater Systems
Codec ID : A_DTS
Duration : 2 h 10 min
Bit rate mode : Constant
Bit rate : 1 509 kb/s
Channel(s) : 6 channels
Channel layout : C L R Ls Rs LFE
Sampling rate : 48.0 kHz
Frame rate : 93.750 FPS (512 SPF)
Bit depth : 24 bits
Compression mode : Lossy
Stream size : 1.37 GiB (25%)
Language : English
Default : Yes
Forced : No

Audio #2
ID : 3
Format : AC-3
Format/Info : Audio Coding 3
Commercial name : Dolby Digital
Codec ID : A_AC3
Duration : 2 h 10 min
Bit rate mode : Constant
Bit rate : 256 kb/s
Channel(s) : 2 channels
Channel layout : L R
Sampling rate : 44.1 kHz
Frame rate : 28.711 FPS (1536 SPF)
Bit depth : 16 bits
Compression mode : Lossy
Stream size : 238 MiB (4%)
Language : English
Service kind : Complete Main
Default : No
Forced : No

Audio #3
ID : 4
Format : AC-3
Format/Info : Audio Coding 3
Commercial name : Dolby Digital
Codec ID : A_AC3
Duration : 2 h 10 min
Bit rate mode : Constant
Bit rate : 256 kb/s
Channel(s) : 2 channels
Channel layout : L R
Sampling rate : 44.1 kHz
Frame rate : 28.711 FPS (1536 SPF)
Bit depth : 16 bits
Compression mode : Lossy
Stream size : 238 MiB (4%)
Language : English
Service kind : Complete Main
Default : No
Forced : No

Text
ID : 5
Format : PGS
Muxing mode : zlib
Codec ID : S_HDMV/PGS
Codec ID/Info : Picture based subtitle format used on BDs/HD-DVDs
Language : English
Default : Yes
Forced : No

Menu
00:00:00.000 : en:Chapter 01
00:13:11.665 : en:Chapter 02
00:23:18.814 : en:Chapter 03
00:35:24.789 : en:Chapter 04
00:49:08.904 : en:Chapter 05
01:03:12.663 : en:Chapter 06
01:12:33.974 : en:Chapter 07
01:22:14.804 : en:Chapter 08
01:30:53.239 : en:Chapter 09
01:45:44.379 : en:Chapter 10
02:00:26.677 : en:Chapter 11



Screenshots (click to enlarge to original size):

The Barefoot Contessa (1954) [Masters of Cinema - Eureka!]

The Barefoot Contessa (1954) [Masters of Cinema - Eureka!]

The Barefoot Contessa (1954) [Masters of Cinema - Eureka!]



–––––––––––––––––––––––––––––––––––––––-
OR OR
–––––––––––––––––––––––––––––––––––––––-

–––––––––––––––––––––––––––––––––––––––-