Subcategories

The Matrix (1999)

Posted By: RSU75
The Matrix (1999)

The Matrix (1999)
DVDRip | MKV | AVC 720x424, ~ 1.6 Mbps | 2hr 10mn | 2.53 GB
English \ Italian: AC3, 6 ch, 384 kbps; English(2 x Commentary): AC3, 2 ch, 192 kbps
Subtitles: English, Italian, Polish, Czech, Hungarian, Russian, Turkish
Genre: Action, Sci-Fi
IMDB Rating: 8.7/10 (1.341.356 votes)


Director: Lana Wachowski (as The Wachowski Brothers), Lilly Wachowski (as The Wachowski Brothers)
Writers: Lilly Wachowski, Lana Wachowski
Stars: Keanu Reeves, Laurence Fishburne, Carrie-Anne Moss

Thomas A. Anderson is a man living two lives. By day he is an average computer programmer and by night a hacker known as Neo. Neo has always questioned his reality, but the truth is far beyond his imagination. Neo finds himself targeted by the police when he is contacted by Morpheus, a legendary computer hacker branded a terrorist by the government. Morpheus awakens Neo to the real world, a ravaged wasteland where most of humanity have been captured by a race of machines that live off of the humans' body heat and electrochemical energy and who imprison their minds within an artificial reality known as the Matrix. As a rebel against the machines, Neo must return to the Matrix and confront the agents: super-powerful computer programs devoted to snuffing out Neo and the entire human rebellion.




General
Unique ID : 177673616976183246703205208798323414473 (0x85AAB1A525C74653AF6EF0E3C93615C9)
Complete name : L:\TheMatrix.1.Matrix.Dr.All\TheMatrix.1.Matrix.Dr.All.mkv
Format : Matroska
Format version : Version 4 / Version 2
File size : 2.53 GiB
Duration : 2 h 10 min
Overall bit rate : 2 772 kb/s
Movie name : Release RSU75
Encoded date : UTC 2017-10-11 04:51:53
Writing application : mkvmerge v6.6.0 ('The Edge Of The In Between') built on Dec 1 2013 17:55:00
Writing library : libebml v1.3.0 + libmatroska v1.4.1

Video
ID : 1
Format : AVC
Format/Info : Advanced Video Codec
Format profile : High@L3
Format settings, CABAC : Yes
Format settings, ReFrames : 4 frames
Codec ID : V_MPEG4/ISO/AVC
Duration : 2 h 10 min
Bit rate : 1 600 kb/s
Width : 720 pixels
Height : 424 pixels
Display aspect ratio : 2.40:1
Frame rate mode : Constant
Frame rate : 25.000 FPS
Color space : YUV
Chroma subsampling : 4:2:0
Bit depth : 8 bits
Scan type : Progressive
Bits/(Pixel*Frame) : 0.210
Stream size : 1.43 GiB (56%)
Writing library : x264 core 144 r2533 c8a773e
Encoding settings : cabac=1 / ref=4 / deblock=1:0:0 / analyse=0x3:0x113 / me=umh / subme=8 / psy=1 / psy_rd=1.00:0.00 / mixed_ref=1 / me_range=24 / chroma_me=1 / trellis=1 / 8x8dct=1 / cqm=0 / deadzone=21,11 / fast_pskip=1 / chroma_qp_offset=-2 / threads=3 / lookahead_threads=1 / sliced_threads=0 / nr=0 / decimate=1 / interlaced=0 / bluray_compat=0 / constrained_intra=0 / bframes=3 / b_pyramid=0 / b_adapt=2 / b_bias=0 / direct=3 / weightb=1 / open_gop=0 / weightp=2 / keyint=250 / keyint_min=25 / scenecut=40 / intra_refresh=0 / rc_lookahead=40 / rc=abr / mbtree=1 / bitrate=1600 / ratetol=1.0 / qcomp=0.60 / qpmin=10 / qpmax=51 / qpstep=4 / ip_ratio=1.41 / aq=1:1.00
Language : English
Default : Yes
Forced : No

Audio #1
ID : 2
Format : AC-3
Format/Info : Audio Coding 3
Mode extension : CM (complete main)
Format settings, Endianness : Big
Codec ID : A_AC3
Duration : 2 h 10 min
Bit rate mode : Constant
Bit rate : 384 kb/s
Channel(s) : 6 channels
Channel positions : Front: L C R, Side: L R, LFE
Sampling rate : 48.0 kHz
Frame rate : 31.250 FPS (1536 spf)
Bit depth : 16 bits
Compression mode : Lossy
Delay relative to video : -40 ms
Stream size : 359 MiB (14%)
Language : English
Default : Yes
Forced : No

Audio #2
ID : 3
Format : AC-3
Format/Info : Audio Coding 3
Mode extension : CM (complete main)
Format settings, Endianness : Big
Codec ID : A_AC3
Duration : 2 h 10 min
Bit rate mode : Constant
Bit rate : 384 kb/s
Channel(s) : 6 channels
Channel positions : Front: L C R, Side: L R, LFE
Sampling rate : 48.0 kHz
Frame rate : 31.250 FPS (1536 spf)
Bit depth : 16 bits
Compression mode : Lossy
Delay relative to video : -40 ms
Stream size : 359 MiB (14%)
Language : Italian
Default : No
Forced : No

Audio #3
ID : 4
Format : AC-3
Format/Info : Audio Coding 3
Format profile : Dolby Digital
Mode extension : CM (complete main)
Format settings, Endianness : Big
Codec ID : A_AC3
Duration : 2 h 10 min
Bit rate mode : Constant
Bit rate : 192 kb/s
Channel(s) : 2 channels
Channel positions : Front: L R
Sampling rate : 48.0 kHz
Frame rate : 31.250 FPS (1536 spf)
Bit depth : 16 bits
Compression mode : Lossy
Delay relative to video : -40 ms
Stream size : 180 MiB (7%)
Title : Commentary
Language : English
Default : No
Forced : No

Audio #4
ID : 5
Format : AC-3
Format/Info : Audio Coding 3
Format profile : Dolby Digital
Mode extension : CM (complete main)
Format settings, Endianness : Big
Codec ID : A_AC3
Duration : 2 h 10 min
Bit rate mode : Constant
Bit rate : 192 kb/s
Channel(s) : 2 channels
Channel positions : Front: L R
Sampling rate : 48.0 kHz
Frame rate : 31.250 FPS (1536 spf)
Bit depth : 16 bits
Compression mode : Lossy
Delay relative to video : -40 ms
Stream size : 180 MiB (7%)
Title : Commentary
Language : English
Default : No
Forced : No

Text #1
ID : 6
Format : VobSub
Muxing mode : zlib
Codec ID : S_VOBSUB
Codec ID/Info : Picture based subtitle format used on DVDs
Language : English
Default : No
Forced : No

Text #2
ID : 7
Format : VobSub
Muxing mode : zlib
Codec ID : S_VOBSUB
Codec ID/Info : Picture based subtitle format used on DVDs
Language : Italian
Default : No
Forced : No

Text #3
ID : 8
Format : VobSub
Muxing mode : zlib
Codec ID : S_VOBSUB
Codec ID/Info : Picture based subtitle format used on DVDs
Language : Polish
Default : No
Forced : No

Text #4
ID : 9
Format : VobSub
Muxing mode : zlib
Codec ID : S_VOBSUB
Codec ID/Info : Picture based subtitle format used on DVDs
Language : Czech
Default : No
Forced : No

Text #5
ID : 10
Format : VobSub
Muxing mode : zlib
Codec ID : S_VOBSUB
Codec ID/Info : Picture based subtitle format used on DVDs
Language : Hungarian
Default : No
Forced : No

Text #6
ID : 11
Format : VobSub
Muxing mode : zlib
Codec ID : S_VOBSUB
Codec ID/Info : Picture based subtitle format used on DVDs
Language : Russian
Default : No
Forced : No

Text #7
ID : 12
Format : VobSub
Muxing mode : zlib
Codec ID : S_VOBSUB
Codec ID/Info : Picture based subtitle format used on DVDs
Language : Turkish
Default : No
Forced : No

Text #8
ID : 13
Format : VobSub
Muxing mode : zlib
Codec ID : S_VOBSUB
Codec ID/Info : Picture based subtitle format used on DVDs
Language : Italian
Default : No
Forced : No

Menu
00:00:00.000 : en:Chapter 01
00:03:16.080 : en:Chapter 02
00:06:20.480 : en:Chapter 03
00:09:14.080 : en:Chapter 04
00:11:29.680 : en:Chapter 05
00:16:07.240 : en:Chapter 06
00:20:40.640 : en:Chapter 07
00:24:07.880 : en:Chapter 08
00:27:41.280 : en:Chapter 09
00:31:06.600 : en:Chapter 10
00:34:14.760 : en:Chapter 11
00:37:06.760 : en:Chapter 12
00:42:34.600 : en:Chapter 13
00:44:40.040 : en:Chapter 14
00:46:58.520 : en:Chapter 15
00:51:20.800 : en:Chapter 16
00:54:14.080 : en:Chapter 17
00:56:37.120 : en:Chapter 18
00:58:39.080 : en:Chapter 19
01:02:37.040 : en:Chapter 20
01:05:01.120 : en:Chapter 21
01:09:36.200 : en:Chapter 22
01:14:39.280 : en:Chapter 23
01:17:44.880 : en:Chapter 24
01:21:37.240 : en:Chapter 25
01:26:05.440 : en:Chapter 26
01:27:43.760 : en:Chapter 27
01:33:26.800 : en:Chapter 28
01:36:57.440 : en:Chapter 29
01:40:05.000 : en:Chapter 30
01:42:38.560 : en:Chapter 31
01:45:48.240 : en:Chapter 32
01:48:20.000 : en:Chapter 33
01:51:51.320 : en:Chapter 34
01:53:58.440 : en:Chapter 35
01:57:27.480 : en:Chapter 36
02:00:33.920 : en:Chapter 37
02:03:31.320 : en:Chapter 38




Screenshots (click to enlarge to original size):

The Matrix (1999)

The Matrix (1999)

The Matrix (1999)


The Matrix (1999)




–––––––––––––––––––––––––––––––––––––––-
>>> "Sci-Fi" <<< OR >>> "Matrix" <<<
–––––––––––––––––––––––––––––––––––––––-
>>> Visit Blog RSU75 Here <<<
–––––––––––––––––––––––––––––––––––––––-