Tags
Language
Tags

The Matrix Resurrections (2021)

Posted By: RSU75
1080p (FullHD) / BDRip IMDb
The Matrix Resurrections (2021)

The Matrix Resurrections (2021)
BDRip 1080p | MKV | AVC 1920x804, ~ 3.7 Mbps | 2hr 27mn | 6.19 GB
English: AC3, 6 ch, 448 kbps; English: AC3, 6 ch, 448 kbps
French \ Spanish \ Portuguese: AC3, 6 ch, 448 kbps
Subtitles: English, French, Korean, Spanish, Portuguese, Greek, Hungarian, Polish, French, Spanish, Portuguese, Hindi, Hungarian, Tamil, Telugu
Genre: Action, Sci-Fi



Director: Lana Wachowski
Writers: Lana Wachowski (based on characters created by), David Mitchell, Aleksandar Hemon
Stars: Keanu Reeves, Carrie-Anne Moss, Yahya Abdul-Mateen II

Return to a world of two realities: one, everyday life; the other, what lies behind it. To find out if his reality is a construct, to truly know himself, Mr. Anderson will have to choose to follow the white rabbit once more.




General
Unique ID : 212205176848494879654890446933797972259 (0x9FA53AFE6BAD8FB6997B57BCF3352923)
Complete name : F:\TheMatrix.Resurrections.2021.1p.All1.mkv
Format : Matroska
Format version : Version 4
File size : 6.19 GiB
Duration : 2 h 27 min
Overall bit rate : 5 992 kb/s
Movie name : Release RSU75 for the Bestmoviesworld.xyz
Encoded date : UTC 2022-03-01 05:02:58
Writing application : mkvmerge v8.3.0 ('Over the Horizon') 64bit
Writing library : libebml v1.3.1 + libmatroska v1.4.2

Video
ID : 1
Format : AVC
Format/Info : Advanced Video Codec
Format profile : High@L4.1
Format settings : CABAC / 4 Ref Frames
Format settings, CABAC : Yes
Format settings, Reference fra : 4 frames
Codec ID : V_MPEG4/ISO/AVC
Duration : 2 h 27 min
Bit rate : 3 700 kb/s
Width : 1 920 pixels
Height : 804 pixels
Display aspect ratio : 2.40:1
Frame rate mode : Constant
Frame rate : 23.976 (23976/1000) FPS
Color space : YUV
Chroma subsampling : 4:2:0
Bit depth : 8 bits
Scan type : Progressive
Bits/(Pixel*Frame) : 0.100
Stream size : 3.81 GiB (61%)
Writing library : x264 core 148 r2643 5c65704
Encoding settings : cabac=1 / ref=4 / deblock=1:0:0 / analyse=0x3:0x113 / me=umh / subme=8 / psy=1 / psy_rd=1.00:0.00 / mixed_ref=1 / me_range=24 / chroma_me=1 / trellis=1 / 8x8dct=1 / cqm=0 / deadzone=21,11 / fast_pskip=1 / chroma_qp_offset=-2 / threads=3 / lookahead_threads=1 / sliced_threads=0 / nr=0 / decimate=1 / interlaced=0 / bluray_compat=0 / constrained_intra=0 / bframes=3 / b_pyramid=0 / b_adapt=2 / b_bias=0 / direct=3 / weightb=1 / open_gop=0 / weightp=2 / keyint=250 / keyint_min=25 / scenecut=40 / intra_refresh=0 / rc_lookahead=40 / rc=abr / mbtree=1 / bitrate=3700 / ratetol=1.0 / qcomp=0.60 / qpmin=10 / qpmax=51 / qpstep=4 / ip_ratio=1.41 / aq=1:1.00
Language : English
Default : Yes
Forced : No

Audio #1
ID : 2
Format : AC-3
Format/Info : Audio Coding 3
Commercial name : Dolby Digital
Codec ID : A_AC3
Duration : 2 h 27 min
Bit rate mode : Constant
Bit rate : 448 kb/s
Channel(s) : 6 channels
Channel layout : L R C LFE Ls Rs
Sampling rate : 48.0 kHz
Frame rate : 31.250 FPS (1536 SPF)
Compression mode : Lossy
Stream size : 474 MiB (7%)
Title : Surround 5.1
Language : English
Service kind : Complete Main
Default : Yes
Forced : No

Audio #2
ID : 3
Format : AC-3
Format/Info : Audio Coding 3
Commercial name : Dolby Digital
Codec ID : A_AC3
Duration : 2 h 27 min
Bit rate mode : Constant
Bit rate : 448 kb/s
Channel(s) : 6 channels
Channel layout : L R C LFE Ls Rs
Sampling rate : 48.0 kHz
Frame rate : 31.250 FPS (1536 SPF)
Compression mode : Lossy
Stream size : 474 MiB (7%)
Title : Surround 5.1
Language : English
Service kind : Complete Main
Default : No
Forced : No

Audio #3
ID : 4
Format : AC-3
Format/Info : Audio Coding 3
Commercial name : Dolby Digital
Codec ID : A_AC3
Duration : 2 h 27 min
Bit rate mode : Constant
Bit rate : 448 kb/s
Channel(s) : 6 channels
Channel layout : L R C LFE Ls Rs
Sampling rate : 48.0 kHz
Frame rate : 31.250 FPS (1536 SPF)
Compression mode : Lossy
Stream size : 474 MiB (7%)
Title : Surround 5.1
Language : French
Service kind : Complete Main
Default : No
Forced : No

Audio #4
ID : 5
Format : AC-3
Format/Info : Audio Coding 3
Commercial name : Dolby Digital
Codec ID : A_AC3
Duration : 2 h 27 min
Bit rate mode : Constant
Bit rate : 448 kb/s
Channel(s) : 6 channels
Channel layout : L R C LFE Ls Rs
Sampling rate : 48.0 kHz
Frame rate : 31.250 FPS (1536 SPF)
Compression mode : Lossy
Stream size : 474 MiB (7%)
Title : Surround 5.1
Language : Spanish
Service kind : Complete Main
Default : No
Forced : No

Audio #5
ID : 6
Format : AC-3
Format/Info : Audio Coding 3
Commercial name : Dolby Digital
Codec ID : A_AC3
Duration : 2 h 27 min
Bit rate mode : Constant
Bit rate : 448 kb/s
Channel(s) : 6 channels
Channel layout : L R C LFE Ls Rs
Sampling rate : 48.0 kHz
Frame rate : 31.250 FPS (1536 SPF)
Compression mode : Lossy
Stream size : 474 MiB (7%)
Title : Surround 5.1
Language : Portuguese
Service kind : Complete Main
Default : No
Forced : No

Text #1
ID : 7
Format : PGS
Muxing mode : zlib
Codec ID : S_HDMV/PGS
Codec ID/Info : Picture based subtitle format used on BDs/HD-DVDs
Duration : 2 h 27 min
Bit rate : 10.1 kb/s
Count of elements : 4162
Stream size : 10.7 MiB (0%)
Language : English
Default : No
Forced : No

Text #2
ID : 8
Format : PGS
Muxing mode : zlib
Codec ID : S_HDMV/PGS
Codec ID/Info : Picture based subtitle format used on BDs/HD-DVDs
Duration : 2 h 26 min
Bit rate : 7 482 b/s
Count of elements : 3290
Stream size : 7.86 MiB (0%)
Language : French
Default : No
Forced : No

Text #3
ID : 9
Format : PGS
Muxing mode : zlib
Codec ID : S_HDMV/PGS
Codec ID/Info : Picture based subtitle format used on BDs/HD-DVDs
Duration : 2 h 27 min
Bit rate : 6 315 b/s
Count of elements : 3374
Stream size : 6.65 MiB (0%)
Language : Korean
Default : No
Forced : No

Text #4
ID : 10
Format : PGS
Muxing mode : zlib
Codec ID : S_HDMV/PGS
Codec ID/Info : Picture based subtitle format used on BDs/HD-DVDs
Duration : 2 h 26 min
Bit rate : 8 462 b/s
Count of elements : 3356
Stream size : 8.89 MiB (0%)
Language : Spanish
Default : No
Forced : No

Text #5
ID : 11
Format : PGS
Muxing mode : zlib
Codec ID : S_HDMV/PGS
Codec ID/Info : Picture based subtitle format used on BDs/HD-DVDs
Duration : 2 h 26 min
Bit rate : 8 407 b/s
Count of elements : 3358
Stream size : 8.83 MiB (0%)
Language : Portuguese
Default : No
Forced : No

Text #6
ID : 12
Format : PGS
Muxing mode : zlib
Codec ID : S_HDMV/PGS
Codec ID/Info : Picture based subtitle format used on BDs/HD-DVDs
Duration : 2 h 26 min
Bit rate : 8 554 b/s
Count of elements : 3360
Stream size : 8.99 MiB (0%)
Language : Greek
Default : No
Forced : No

Text #7
ID : 13
Format : PGS
Muxing mode : zlib
Codec ID : S_HDMV/PGS
Codec ID/Info : Picture based subtitle format used on BDs/HD-DVDs
Duration : 2 h 27 min
Bit rate : 7 653 b/s
Count of elements : 3108
Stream size : 8.06 MiB (0%)
Language : Hungarian
Default : No
Forced : No

Text #8
ID : 14
Format : PGS
Muxing mode : zlib
Codec ID : S_HDMV/PGS
Codec ID/Info : Picture based subtitle format used on BDs/HD-DVDs
Duration : 2 h 27 min
Bit rate : 8 889 b/s
Count of elements : 3360
Stream size : 9.36 MiB (0%)
Language : Polish
Default : No
Forced : No

Text #9
ID : 15
Format : PGS
Muxing mode : zlib
Codec ID : S_HDMV/PGS
Codec ID/Info : Picture based subtitle format used on BDs/HD-DVDs
Duration : 2 h 25 min
Bit rate : 143 b/s
Count of elements : 48
Stream size : 153 KiB (0%)
Language : French
Default : No
Forced : No

Text #10
ID : 16
Format : PGS
Muxing mode : zlib
Codec ID : S_HDMV/PGS
Codec ID/Info : Picture based subtitle format used on BDs/HD-DVDs
Duration : 2 h 25 min
Bit rate : 134 b/s
Count of elements : 40
Stream size : 143 KiB (0%)
Language : Spanish
Default : No
Forced : No

Text #11
ID : 17
Format : PGS
Muxing mode : zlib
Codec ID : S_HDMV/PGS
Codec ID/Info : Picture based subtitle format used on BDs/HD-DVDs
Duration : 2 h 25 min
Bit rate : 143 b/s
Count of elements : 44
Stream size : 153 KiB (0%)
Language : Portuguese
Default : No
Forced : No

Text #12
ID : 18
Format : PGS
Muxing mode : zlib
Codec ID : S_HDMV/PGS
Codec ID/Info : Picture based subtitle format used on BDs/HD-DVDs
Duration : 2 h 25 min
Bit rate : 173 b/s
Count of elements : 70
Stream size : 185 KiB (0%)
Language : Hindi
Default : No
Forced : No

Text #13
ID : 19
Format : PGS
Muxing mode : zlib
Codec ID : S_HDMV/PGS
Codec ID/Info : Picture based subtitle format used on BDs/HD-DVDs
Duration : 2 h 12 min
Bit rate : 85 b/s
Count of elements : 26
Stream size : 83.3 KiB (0%)
Language : Hungarian
Default : No
Forced : No

Text #14
ID : 20
Format : PGS
Muxing mode : zlib
Codec ID : S_HDMV/PGS
Codec ID/Info : Picture based subtitle format used on BDs/HD-DVDs
Duration : 2 h 26 min
Bit rate : 222 b/s
Count of elements : 64
Stream size : 239 KiB (0%)
Language : Tamil
Default : No
Forced : No

Text #15
ID : 21
Format : PGS
Muxing mode : zlib
Codec ID : S_HDMV/PGS
Codec ID/Info : Picture based subtitle format used on BDs/HD-DVDs
Duration : 2 h 25 min
Bit rate : 222 b/s
Count of elements : 64
Stream size : 238 KiB (0%)
Language : Telugu
Default : No
Forced : No

Menu
00:00:00.000 : en:Chapter 01
00:04:06.079 : en:Chapter 02
00:13:44.782 : en:Chapter 03
00:22:39.358 : en:Chapter 04
00:30:47.637 : en:Chapter 05
00:39:00.629 : en:Chapter 06
00:47:42.484 : en:Chapter 07
00:54:20.799 : en:Chapter 08
01:03:01.194 : en:Chapter 09
01:11:51.557 : en:Chapter 10
01:20:40.293 : en:Chapter 11
01:30:30.258 : en:Chapter 12
01:39:38.681 : en:Chapter 13
01:48:59.866 : en:Chapter 14
01:53:17.874 : en:Chapter 15
02:02:57.620 : en:Chapter 16
02:12:33.445 : en:Chapter 17
02:16:40.901 : en:Chapter 18




Screenshots (click to enlarge to original size):

The Matrix Resurrections (2021)

The Matrix Resurrections (2021)

The Matrix Resurrections (2021)






More in My Blog



If you like this release please visit my blog
In it you will find BDRip releases in different languages