Tags
Language
Tags

The Pillow Book (1996)

Posted By: RSU75
1080p (FullHD) / BDRip IMDb
The Pillow Book (1996)

The Pillow Book (1996)
BDRip 1080p | MKV | AVC 1440x1080, ~ 3.7 Mbps | 2hr 06mn | 3.86 GB
English: AC3, 2 ch, 448 kbps; English (commentary): AC3, 2 ch, 192 kbps
BDRip 720p | MKV | AVC 960x720, ~ 2.5 Mbps | 2hr 06mn | 2.62 GB
English: AC3, 2 ch, 256 kbps; English (commentary): AC3, 2 ch, 192 kbps
Subtitles: English
Genre: Drama



Director: Peter Greenaway
Writers: Sei Shonagon (book), Peter Greenaway
Stars: Vivian Wu, Ewan McGregor, Yoshi Oida

As a young girl in Japan, Nagiko's father paints characters on her face, and her aunt reads to her from "The Pillow Book", the diary of a 10th-century lady-in-waiting. Nagiko grows up, obsessed with books, papers, and writing on bodies, and her sexual odyssey (and the creation of her own Pillow Book) is a "parfait mélange" of classical Japanese, modern Chinese, and Western film images.

Extras:
- Selected scenes commentary with Peter Greenaway (2015)




General
Unique ID : 241383602754074270145389294983839241927 (0xB598CA75FC43DA54BCB42B209EF856C7)
Complete name : F:\ThePillowBook.1996.1p\ThePillowBook.1996.1p.mkv
Format : Matroska
Format version : Version 4 / Version 2
File size : 3.86 GiB
Duration : 2 h 6 min
Overall bit rate : 4 370 kb/s
Movie name : Release RSU75
Encoded date : UTC 2020-03-13 13:54:00
Writing application : mkvmerge v6.6.0 ('The Edge Of The In Between') built on Dec 1 2013 17:55:00
Writing library : libebml v1.3.0 + libmatroska v1.4.1

Video
ID : 1
Format : AVC
Format/Info : Advanced Video Codec
Format profile : High@L4.1
Format settings : CABAC / 4 Ref Frames
Format settings, CABAC : Yes
Format settings, ReFrames : 4 frames
Codec ID : V_MPEG4/ISO/AVC
Duration : 2 h 6 min
Bit rate : 3 700 kb/s
Width : 1 440 pixels
Height : 1 080 pixels
Display aspect ratio : 4:3
Frame rate mode : Constant
Frame rate : 23.976 (23976/1000) FPS
Color space : YUV
Chroma subsampling : 4:2:0
Bit depth : 8 bits
Scan type : Progressive
Bits/(Pixel*Frame) : 0.099
Stream size : 3.22 GiB (83%)
Writing library : x264 core 148 r2643 5c65704
Encoding settings : cabac=1 / ref=4 / deblock=1:0:0 / analyse=0x3:0x113 / me=umh / subme=8 / psy=1 / psy_rd=1.00:0.00 / mixed_ref=1 / me_range=24 / chroma_me=1 / trellis=1 / 8x8dct=1 / cqm=0 / deadzone=21,11 / fast_pskip=1 / chroma_qp_offset=-2 / threads=3 / lookahead_threads=1 / sliced_threads=0 / nr=0 / decimate=1 / interlaced=0 / bluray_compat=0 / constrained_intra=0 / bframes=3 / b_pyramid=0 / b_adapt=2 / b_bias=0 / direct=3 / weightb=1 / open_gop=0 / weightp=2 / keyint=250 / keyint_min=25 / scenecut=40 / intra_refresh=0 / rc_lookahead=40 / rc=abr / mbtree=1 / bitrate=3700 / ratetol=1.0 / qcomp=0.60 / qpmin=10 / qpmax=51 / qpstep=4 / ip_ratio=1.41 / aq=1:1.00
Language : English
Default : Yes
Forced : No

Audio #1
ID : 2
Format : AC-3
Format/Info : Audio Coding 3
Commercial name : Dolby Digital
Codec ID : A_AC3
Duration : 2 h 6 min
Bit rate mode : Constant
Bit rate : 448 kb/s
Channel(s) : 2 channels
Channel layout : L R
Sampling rate : 44.1 kHz
Frame rate : 28.711 FPS (1536 SPF)
Bit depth : 16 bits
Compression mode : Lossy
Stream size : 405 MiB (10%)
Title : Stereo
Language : English
Service kind : Complete Main
Default : Yes
Forced : No

Audio #2
ID : 3
Format : AC-3
Format/Info : Audio Coding 3
Commercial name : Dolby Digital
Codec ID : A_AC3
Duration : 2 h 6 min
Bit rate mode : Constant
Bit rate : 192 kb/s
Channel(s) : 2 channels
Channel layout : L R
Sampling rate : 48.0 kHz
Frame rate : 31.250 FPS (1536 SPF)
Bit depth : 16 bits
Compression mode : Lossy
Stream size : 174 MiB (4%)
Title : Stereo
Language : English
Service kind : Complete Main
Default : No
Forced : No

Text
ID : 4
Format : PGS
Muxing mode : zlib
Codec ID : S_HDMV/PGS
Codec ID/Info : Picture based subtitle format used on BDs/HD-DVDs
Language : English
Default : Yes
Forced : No

Menu
00:00:00.000 : en:Chapter 01
00:10:07.148 : en:Chapter 02
00:20:46.370 : en:Chapter 03
00:31:14.122 : en:Chapter 04
00:40:28.843 : en:Chapter 05
00:47:27.427 : en:Chapter 06
00:55:33.747 : en:Chapter 07
01:03:03.154 : en:Chapter 08
01:09:00.594 : en:Chapter 09
01:17:50.457 : en:Chapter 10
01:29:52.428 : en:Chapter 11
01:35:23.092 : en:Chapter 12
01:50:08.059 : en:Chapter 13
01:58:29.477 : en:Chapter 14





General
Unique ID : 171121171439543327890670201224189949228 (0x80BCBD2344B91D51AE57F426CEE7B52C)
Complete name : F:\ThePillowBook.1996.7p\ThePillowBook.1996.7p.mkv
Format : Matroska
Format version : Version 4 / Version 2
File size : 2.62 GiB
Duration : 2 h 6 min
Overall bit rate : 2 973 kb/s
Movie name : Release RSU75
Encoded date : UTC 2020-03-12 15:18:27
Writing application : mkvmerge v6.6.0 ('The Edge Of The In Between') built on Dec 1 2013 17:55:00
Writing library : libebml v1.3.0 + libmatroska v1.4.1

Video
ID : 1
Format : AVC
Format/Info : Advanced Video Codec
Format profile : High@L4.1
Format settings : CABAC / 4 Ref Frames
Format settings, CABAC : Yes
Format settings, ReFrames : 4 frames
Codec ID : V_MPEG4/ISO/AVC
Duration : 2 h 6 min
Bit rate : 2 500 kb/s
Width : 960 pixels
Height : 720 pixels
Display aspect ratio : 4:3
Frame rate mode : Constant
Frame rate : 23.976 (23976/1000) FPS
Color space : YUV
Chroma subsampling : 4:2:0
Bit depth : 8 bits
Scan type : Progressive
Bits/(Pixel*Frame) : 0.151
Stream size : 2.18 GiB (83%)
Writing library : x264 core 148 r2643 5c65704
Encoding settings : cabac=1 / ref=4 / deblock=1:0:0 / analyse=0x3:0x113 / me=umh / subme=8 / psy=1 / psy_rd=1.00:0.00 / mixed_ref=1 / me_range=24 / chroma_me=1 / trellis=1 / 8x8dct=1 / cqm=0 / deadzone=21,11 / fast_pskip=1 / chroma_qp_offset=-2 / threads=3 / lookahead_threads=1 / sliced_threads=0 / nr=0 / decimate=1 / interlaced=0 / bluray_compat=0 / constrained_intra=0 / bframes=3 / b_pyramid=0 / b_adapt=2 / b_bias=0 / direct=3 / weightb=1 / open_gop=0 / weightp=2 / keyint=250 / keyint_min=25 / scenecut=40 / intra_refresh=0 / rc_lookahead=40 / rc=abr / mbtree=1 / bitrate=2500 / ratetol=1.0 / qcomp=0.60 / qpmin=10 / qpmax=51 / qpstep=4 / ip_ratio=1.41 / aq=1:1.00
Language : English
Default : Yes
Forced : No

Audio #1
ID : 2
Format : AC-3
Format/Info : Audio Coding 3
Commercial name : Dolby Digital
Codec ID : A_AC3
Duration : 2 h 6 min
Bit rate mode : Constant
Bit rate : 256 kb/s
Channel(s) : 2 channels
Channel layout : L R
Sampling rate : 44.1 kHz
Frame rate : 28.711 FPS (1536 SPF)
Bit depth : 16 bits
Compression mode : Lossy
Stream size : 231 MiB (9%)
Title : Stereo
Language : English
Service kind : Complete Main
Default : Yes
Forced : No

Audio #2
ID : 3
Format : AC-3
Format/Info : Audio Coding 3
Commercial name : Dolby Digital
Codec ID : A_AC3
Duration : 2 h 6 min
Bit rate mode : Constant
Bit rate : 192 kb/s
Channel(s) : 2 channels
Channel layout : L R
Sampling rate : 48.0 kHz
Frame rate : 31.250 FPS (1536 SPF)
Bit depth : 16 bits
Compression mode : Lossy
Stream size : 174 MiB (6%)
Title : Stereo
Language : English
Service kind : Complete Main
Default : No
Forced : No

Text
ID : 4
Format : PGS
Muxing mode : zlib
Codec ID : S_HDMV/PGS
Codec ID/Info : Picture based subtitle format used on BDs/HD-DVDs
Language : English
Default : Yes
Forced : No

Menu
00:00:00.000 : en:Chapter 01
00:10:07.148 : en:Chapter 02
00:20:46.370 : en:Chapter 03
00:31:14.122 : en:Chapter 04
00:40:28.843 : en:Chapter 05
00:47:27.427 : en:Chapter 06
00:55:33.747 : en:Chapter 07
01:03:03.154 : en:Chapter 08
01:09:00.594 : en:Chapter 09
01:17:50.457 : en:Chapter 10
01:29:52.428 : en:Chapter 11
01:35:23.092 : en:Chapter 12
01:50:08.059 : en:Chapter 13
01:58:29.477 : en:Chapter 14




Screenshots 1080p (click to enlarge to original size):

The Pillow Book (1996)

The Pillow Book (1996)

The Pillow Book (1996)



Screenshots 720p (click to enlarge to original size):

The Pillow Book (1996)






If you like this release please visit my blog
In it you will find "Blu-Ray", "BDRip" releases in different languages