The Seventh Seal / Det sjunde inseglet (1957) [Criterion Collection]

Posted By: RSU75
1080p (FullHD) / BDRip IMDb
The Seventh Seal / Det sjunde inseglet (1957) [Criterion Collection]

The Seventh Seal / Det sjunde inseglet (1957) [Criterion Collection]
BDRip 1080p | MKV | HEVC, 1480x1080, ~ 3.7 Mbps | 1hr 37mn | 3.15 GB
Swedish (Svenska): AC3, 1 ch, 448 kbps \ English: AC3, 1 ch, 192 kbps \ English (Commentary): AC3, 1 ch, 192 kbps
BDRip 720p | MKV | HEVC, 988x720, ~ 2.5 Mbps | 1hr 37mn | 2.21 GB
Swedish (Svenska): AC3, 1 ch, 256 kbps \ English: AC3, 1 ch, 192 kbps \ English (Commentary): AC3, 1 ch, 192 kbps
Subtitles: English
Genre: Drama, Fantasy
IMDB Rating: 8.2/10 (140,162 votes)


Director: Ingmar Bergman
Writers: Ingmar Bergman (play), Ingmar Bergman (screenplay)
Stars: Max von Sydow, Gunnar Björnstrand, Bengt Ekerot

Returning exhausted from the Crusades to find medieval Sweden gripped by the Plague, a knight (Max von Sydow) suddenly comes face-to-face with the hooded figure of Death, and challenges him to a game of chess. As the fateful game progresses, and the knight and his squire encounter a gallery of outcasts from a society in despair, Bergman mounts a profound inquiry into the nature of faith and the torment of mortality. One of the most influential films of its time, The Seventh Seal is a stunning allegory of man’s search for meaning and a work of stark visual poetry.


The Seventh Seal / Det sjunde inseglet (1957) [Criterion Collection]


Ingmar Bergman’s Cinema: In honor of Ingmar Bergman’s one hundredth birthday, the Criterion Collection is proud to present the most comprehensive collection of his films ever released on home video. One of the most revelatory voices to emerge from the postwar explosion of international art-house cinema, Bergman was a master storyteller who startled the world with his stark intensity and naked pursuit of the most profound metaphysical and spiritual questions. The struggles of faith and morality, the nature of dreams, and the agonies and ecstasies of human relationships—Bergman explored these subjects in films ranging from comedies whose lightness and complexity belie their brooding hearts to groundbreaking formal experiments and excruciatingly intimate explorations of family life.


Extras:
- Optional English-dubbed soundtrack
- Audio commentary by Bergman expert Peter Cowie recorded for Criterion in 1987




General
Unique ID : 222497224815681013697753729182977566418 (0xA7636822D60FBB23A1B24C2BBE9D26D2)
Complete name : F:\TheSeventhSeal.57.Cr.HEVC.1p\TheSeventhSeal.57.Cr.HEVC.1p.mkv
Format : Matroska
Format version : Version 4 / Version 2
File size : 3.15 GiB
Duration : 1 h 37 min
Overall bit rate : 4 640 kb/s
Movie name : Release RSU75
Encoded date : UTC 2019-02-06 03:08:57
Writing application : mkvmerge v6.6.0 ('The Edge Of The In Between') built on Dec 1 2013 17:55:00
Writing library : libebml v1.3.0 + libmatroska v1.4.1

Video
ID : 1
Format : HEVC
Format/Info : High Efficiency Video Coding
Format profile : Main@L4@Main
Codec ID : V_MPEGH/ISO/HEVC
Bit rate : 3 716 kb/s
Width : 1 480 pixels
Height : 1 080 pixels
Display aspect ratio : 1.370
Frame rate mode : Variable
Original frame rate : 23.976 FPS
Color space : YUV
Chroma subsampling : 4:2:0
Bit depth : 8 bits
Writing library : x265 1.9+5-20f14d78dbad:[Windows][GCC 5.2.0][32 bit] 8bit
Encoding settings : wpp / ctu=64 / min-cu-size=8 / max-tu-size=32 / tu-intra-depth=1 / tu-inter-depth=1 / me=1 / subme=2 / merange=57 / no-rect / no-amp / max-merge=2 / temporal-mvp / no-early-skip / rdpenalty=0 / no-tskip / no-tskip-fast / strong-intra-smoothing / no-lossless / no-cu-lossless / no-constrained-intra / no-fast-intra / open-gop / no-temporal-layers / interlace=0 / keyint=250 / min-keyint=23 / scenecut=40 / rc-lookahead=20 / lookahead-slices=6 / bframes=4 / bframe-bias=0 / b-adapt=2 / ref=3 / limit-refs=3 / no-limit-modes / weightp / no-weightb / aq-mode=1 / qg-size=32 / aq-strength=1.00 / cbqpoffs=0 / crqpoffs=0 / rd=3 / psy-rd=2.00 / rdoq-level=0 / psy-rdoq=0.00 / signhide / deblock / sao / no-sao-non-deblock / b-pyramid / cutree / no-intra-refresh / rc=abr / bitrate=3800 / qcomp=0.60 / qpmin=0 / qpmax=51 / qpstep=4 / ipratio=1.40 / pbratio=1.30
Language : English
Default : Yes
Forced : No

Audio #1
ID : 2
Format : AC-3
Format/Info : Audio Coding 3
Commercial name : Dolby Digital
Codec ID : A_AC3
Duration : 1 h 37 min
Bit rate mode : Constant
Bit rate : 448 kb/s
Channel(s) : 1 channel
Channel layout : C
Sampling rate : 48.0 kHz
Frame rate : 31.250 FPS (1536 SPF)
Bit depth : 16 bits
Compression mode : Lossy
Stream size : 311 MiB (10%)
Language : Swedish
Service kind : Complete Main
Default : Yes
Forced : No

Audio #2
ID : 3
Format : AC-3
Format/Info : Audio Coding 3
Commercial name : Dolby Digital
Codec ID : A_AC3
Duration : 1 h 37 min
Bit rate mode : Constant
Bit rate : 192 kb/s
Channel(s) : 1 channel
Channel layout : C
Sampling rate : 48.0 kHz
Frame rate : 31.250 FPS (1536 SPF)
Bit depth : 16 bits
Compression mode : Lossy
Stream size : 133 MiB (4%)
Language : English
Service kind : Complete Main
Default : No
Forced : No

Audio #3
ID : 4
Format : AC-3
Format/Info : Audio Coding 3
Commercial name : Dolby Digital
Codec ID : A_AC3
Duration : 1 h 37 min
Bit rate mode : Constant
Bit rate : 192 kb/s
Channel(s) : 1 channel
Channel layout : C
Sampling rate : 48.0 kHz
Frame rate : 31.250 FPS (1536 SPF)
Bit depth : 16 bits
Compression mode : Lossy
Stream size : 133 MiB (4%)
Title : Commentary
Language : English
Service kind : Complete Main
Default : No
Forced : No

Text
ID : 5
Format : PGS
Muxing mode : zlib
Codec ID : S_HDMV/PGS
Codec ID/Info : Picture based subtitle format used on BDs/HD-DVDs
Language : English
Default : Yes
Forced : No

Menu
00:00:00.000 : en:Chapter 01
00:01:48.399 : en:Chapter 02
00:08:50.071 : en:Chapter 03
00:17:00.728 : en:Chapter 04
00:27:54.130 : en:Chapter 05
00:32:55.974 : en:Chapter 06
00:37:00.927 : en:Chapter 07
00:43:30.107 : en:Chapter 08
00:49:16.411 : en:Chapter 09
00:59:05.166 : en:Chapter 10
01:02:51.851 : en:Chapter 11
01:10:22.801 : en:Chapter 12
01:19:14.875 : en:Chapter 13
01:26:37.317 : en:Chapter 14
01:34:37.296 : en:Chapter 15





General
Unique ID : 173604232104401906696394316242685949339 (0x829AF57B025D2972841299E70196759B)
Complete name : F:\TheSeventhSeal.57.Cr.HEVC.7p\TheSeventhSeal.57.Cr.HEVC.7p.mkv
Format : Matroska
Format version : Version 4 / Version 2
File size : 2.21 GiB
Duration : 1 h 37 min
Overall bit rate : 3 258 kb/s
Movie name : Release RSU75
Encoded date : UTC 2019-02-03 04:22:11
Writing application : mkvmerge v6.6.0 ('The Edge Of The In Between') built on Dec 1 2013 17:55:00
Writing library : libebml v1.3.0 + libmatroska v1.4.1

Video
ID : 1
Format : HEVC
Format/Info : High Efficiency Video Coding
Format profile : Main@L3.1@Main
Codec ID : V_MPEGH/ISO/HEVC
Bit rate : 2 553 kb/s
Width : 988 pixels
Height : 720 pixels
Display aspect ratio : 1.371
Original display aspect rat : 1.370
Frame rate mode : Variable
Original frame rate : 23.976 FPS
Color space : YUV
Chroma subsampling : 4:2:0
Bit depth : 8 bits
Writing library : x265 1.9+5-20f14d78dbad:[Windows][GCC 5.2.0][32 bit] 8bit
Encoding settings : wpp / ctu=64 / min-cu-size=8 / max-tu-size=32 / tu-intra-depth=1 / tu-inter-depth=1 / me=1 / subme=2 / merange=57 / no-rect / no-amp / max-merge=2 / temporal-mvp / no-early-skip / rdpenalty=0 / no-tskip / no-tskip-fast / strong-intra-smoothing / no-lossless / no-cu-lossless / no-constrained-intra / no-fast-intra / open-gop / no-temporal-layers / interlace=0 / keyint=250 / min-keyint=23 / scenecut=40 / rc-lookahead=20 / lookahead-slices=4 / bframes=4 / bframe-bias=0 / b-adapt=2 / ref=3 / limit-refs=3 / no-limit-modes / weightp / no-weightb / aq-mode=1 / qg-size=32 / aq-strength=1.00 / cbqpoffs=0 / crqpoffs=0 / rd=3 / psy-rd=2.00 / rdoq-level=0 / psy-rdoq=0.00 / signhide / deblock / sao / no-sao-non-deblock / b-pyramid / cutree / no-intra-refresh / rc=abr / bitrate=2600 / qcomp=0.60 / qpmin=0 / qpmax=51 / qpstep=4 / ipratio=1.40 / pbratio=1.30
Language : English
Default : Yes
Forced : No

Audio #1
ID : 2
Format : AC-3
Format/Info : Audio Coding 3
Commercial name : Dolby Digital
Codec ID : A_AC3
Duration : 1 h 37 min
Bit rate mode : Constant
Bit rate : 256 kb/s
Channel(s) : 1 channel
Channel layout : C
Sampling rate : 48.0 kHz
Frame rate : 31.250 FPS (1536 SPF)
Bit depth : 16 bits
Compression mode : Lossy
Stream size : 178 MiB (8%)
Language : Swedish
Service kind : Complete Main
Default : Yes
Forced : No

Audio #2
ID : 3
Format : AC-3
Format/Info : Audio Coding 3
Commercial name : Dolby Digital
Codec ID : A_AC3
Duration : 1 h 37 min
Bit rate mode : Constant
Bit rate : 192 kb/s
Channel(s) : 1 channel
Channel layout : C
Sampling rate : 48.0 kHz
Frame rate : 31.250 FPS (1536 SPF)
Bit depth : 16 bits
Compression mode : Lossy
Stream size : 133 MiB (6%)
Language : English
Service kind : Complete Main
Default : No
Forced : No

Audio #3
ID : 4
Format : AC-3
Format/Info : Audio Coding 3
Commercial name : Dolby Digital
Codec ID : A_AC3
Duration : 1 h 37 min
Bit rate mode : Constant
Bit rate : 192 kb/s
Channel(s) : 1 channel
Channel layout : C
Sampling rate : 48.0 kHz
Frame rate : 31.250 FPS (1536 SPF)
Bit depth : 16 bits
Compression mode : Lossy
Stream size : 133 MiB (6%)
Title : Commentary
Language : English
Service kind : Complete Main
Default : No
Forced : No

Text
ID : 5
Format : PGS
Muxing mode : zlib
Codec ID : S_HDMV/PGS
Codec ID/Info : Picture based subtitle format used on BDs/HD-DVDs
Language : English
Default : Yes
Forced : No

Menu
00:00:00.000 : en:Chapter 01
00:01:48.399 : en:Chapter 02
00:08:50.071 : en:Chapter 03
00:17:00.728 : en:Chapter 04
00:27:54.130 : en:Chapter 05
00:32:55.974 : en:Chapter 06
00:37:00.927 : en:Chapter 07
00:43:30.107 : en:Chapter 08
00:49:16.411 : en:Chapter 09
00:59:05.166 : en:Chapter 10
01:02:51.851 : en:Chapter 11
01:10:22.801 : en:Chapter 12
01:19:14.875 : en:Chapter 13
01:26:37.317 : en:Chapter 14
01:34:37.296 : en:Chapter 15




Screenshots 1080p (click to enlarge to original size):

The Seventh Seal / Det sjunde inseglet (1957) [Criterion Collection]

The Seventh Seal / Det sjunde inseglet (1957) [Criterion Collection]

The Seventh Seal / Det sjunde inseglet (1957) [Criterion Collection]


The Seventh Seal / Det sjunde inseglet (1957) [Criterion Collection]



Screenshots 720p (click to enlarge to original size):

The Seventh Seal / Det sjunde inseglet (1957) [Criterion Collection]




–––––––––––––––––––––––––––––––––––––––-
>>> "Criterion Collection" <<<OR >>> "Criterion Collection, BDRip" <<<OR >>> "Ingmar Bergman" <<<
–––––––––––––––––––––––––––––––––––––––-
>>> Visit Blog RSU75 Here <<<
–––––––––––––––––––––––––––––––––––––––-