Tags
Language
Tags
November 2022
Su Mo Tu We Th Fr Sa
30 31 1 2 3 4 5
6 7 8 9 10 11 12
13 14 15 16 17 18 19
20 21 22 23 24 25 26
27 28 29 30 1 2 3

The Apartment (1960) [Repost]

Posted By: Without
The Apartment (1960) [Repost]

The Apartment (1960)
BDRip 1080p | MKV | 1920x824 | AVC@8490 kb/s | English DTS@1 509 kb/s
Subs: English | 6 channels | 2 h 5 min | 8.74 GB
Genre: Comedy, Drama, Romance

A man tries to rise in his company by letting its executives use his apartment for trysts, but complications and a romance of his own ensue.

IMDB - Top Rated Movies #107 | Won 5 Oscars. Another 19 wins & 8 nominations


General
The.Apartment.1960.1080p.BluRay.x264-AMIABLE\The.Apartment.1960.1080p.BluRay.X264-AMIABLE.mkv
Format : Matroska
Format version : Version 2
File size : 8.75 GiB
Duration : 2 h 5 min
Overall bit rate : 10.0 Mb/s
Writing application : x264.exe
Writing library : mkv2rls v1.4 (date: 2011 mar 29)

Video
ID : 1
Format : AVC
Format/Info : Advanced Video Codec
Format profile : High@L4.1
Format settings, CABAC : Yes
Format settings, ReFrames : 5 frames
Codec ID : V_MPEG4/ISO/AVC
Duration : 2 h 5 min
Bit rate : 8 490 kb/s
Width : 1 920 pixels
Height : 824 pixels
Display aspect ratio : 2.35:1
Frame rate mode : Constant
Frame rate : 23.976 (24000/1001) FPS
Color space : YUV
Chroma subsampling : 4:2:0
Bit depth : 8 bits
Scan type : Progressive
Bits/(Pixel*Frame) : 0.224
Stream size : 7.25 GiB (83%)
Writing library : x264 core 120 r2145 748fe16
Encoding settings : cabac=1 / ref=5 / deblock=1:0:0 / analyse=0x3:0x113 / me=umh / subme=8 / psy=1 / psy_rd=1.00:0.00 / mixed_ref=1 / me_range=16 / chroma_me=1 / trellis=1 / 8x8dct=1 / cqm=0 / deadzone=21,11 / fast_pskip=1 / chroma_qp_offset=-2 / threads=12 / sliced_threads=0 / nr=0 / decimate=1 / interlaced=0 / bluray_compat=0 / constrained_intra=0 / bframes=3 / b_pyramid=2 / b_adapt=2 / b_bias=0 / direct=3 / weightb=1 / open_gop=0 / weightp=2 / keyint=240 / keyint_min=24 / scenecut=40 / intra_refresh=0 / rc_lookahead=50 / rc=2pass / mbtree=1 / bitrate=8490 / ratetol=1.0 / qcomp=0.60 / qpmin=0 / qpmax=69 / qpstep=4 / cplxblur=20.0 / qblur=0.5 / ip_ratio=1.40 / aq=1:1.00
Language : English
Default : Yes
Forced : No

Audio
ID : 2
Format : DTS
Format/Info : Digital Theater Systems
Mode : 16
Format settings, Endianness : Big
Codec ID : A_DTS
Duration : 2 h 5 min
Bit rate mode : Constant
Bit rate : 1 509 kb/s
Channel(s) : 6 channels
Channel positions : Front: L C R, Side: L R, LFE
Sampling rate : 48.0 kHz
Frame rate : 93.750 FPS (512 spf)
Bit depth : 24 bits
Compression mode : Lossy
Stream size : 1.32 GiB (15%)
Language : English
Default : Yes
Forced : No

Text
ID : 3
Format : UTF-8
Codec ID : S_TEXT/UTF8
Codec ID/Info : UTF-8 Plain Text
Language : English
Default : No
Forced : No

Menu
00:00:00.000 : en:00:00:00.000
00:05:21.738 : en:00:05:21.738
00:10:27.210 : en:00:10:27.210
00:16:21.647 : en:00:16:21.647
00:20:47.538 : en:00:20:47.538
00:25:45.669 : en:00:25:45.669
00:32:13.640 : en:00:32:13.640
00:35:22.287 : en:00:35:22.287
00:42:05.565 : en:00:42:05.565
00:45:42.990 : en:00:45:42.990
00:48:44.004 : en:00:48:44.004
00:52:52.294 : en:00:52:52.294
00:56:15.080 : en:00:56:15.080
01:02:23.573 : en:01:02:23.573
01:06:10.967 : en:01:06:10.967
01:11:33.789 : en:01:11:33.789
01:17:57.047 : en:01:17:57.047
01:23:25.834 : en:01:23:25.834
01:28:32.474 : en:01:28:32.474
01:33:03.244 : en:01:33:03.244
01:36:23.611 : en:01:36:23.611
01:50:44.346 : en:01:50:44.346
01:56:22.684 : en:01:56:22.684
02:00:42.110 : en:02:00:42.110


BDRip 1080p Screenshots

The Apartment (1960) [Repost]

The Apartment (1960) [Repost]

The Apartment (1960) [Repost]

The Apartment (1960) [Repost]


Come Visit My Blog (•‿•)