The Blue Lagoon (1980)

Posted By: NaVi7
The Blue Lagoon (1980)

The Blue Lagoon (1980)
BDRip 720p | MKV / AVC, 5959 Kbps | 1280x696 | 1h 44mn | 5.47 GB
BDRip 1080p | MKV / AVC, 10.4 Mbps | 1920x1040 | 1h 44mn | 8.75 GB
English: DTS, 1509 Kbps (6 ch) | Subtitles: English
Genre: Adventure | Drama | Romance

On a journey to San Francisco, Richard, his father and cousin Emmeline find themselves on a ship about to explode. Rushed to a lifeboat with Paddy Button, the two children escape while their father (and uncle) are on another lifeboat. In the chaos following, the lifeboats are separated. Paddy, Richard and Emmeline find themselves with no food and no water stuck in the middle of nowhere. After some time, the three come across an uncharted paradise, where Paddy quickly teaches the children fishing, hunting and building. After maybe a month or two, Paddy gets very drunk off a barrel of rum found on the island when they first arrive, and drowns in the middle of the night. Emmeline and Richard, now alone and very scared, move location and rebuild their island home. Many years later, the two young teenagers have developed a very real home, but hormones and feelings between the two strain their friendship…

imdb - Nominated for Oscar. Another 1 win & 5 nominations.

General
Complete name : the.blue.lagoon.1980.720p.bluray.x264-psychd.mkv
Format : Matroska
Format version : Version 2
File size : 5.47 GiB
Duration : 1h 44mn
Overall bit rate : 7 470 Kbps
Writing application : mkvmerge v4.1.1 ('Bouncin' Back') built on Jul 3 2010 22:54:08
Writing library : libebml v1.0.0 + libmatroska v1.0

Video
ID : 1
Format : AVC
Format/Info : Advanced Video Codec
Format profile : High@L4.1
Format settings, CABAC : Yes
Format settings, ReFrames : 5 frames
Codec ID : V_MPEG4/ISO/AVC
Duration : 1h 44mn
Bit rate : 5 959 Kbps
Width : 1 280 pixels
Height : 696 pixels
Display aspect ratio : 1.85:1
Frame rate mode : Constant
Frame rate : 23.976 fps
Color space : YUV
Chroma subsampling : 4:2:0
Bit depth : 8 bits
Scan type : Progressive
Bits/(Pixel*Frame) : 0.279
Stream size : 4.25 GiB (78%)
Writing library : x264 core 129 r2230 1cffe9f
Encoding settings : cabac=1 / ref=5 / deblock=1:0:0 / analyse=0x3:0x113 / me=umh / subme=8 / psy=1 / psy_rd=1.00:0.00 / mixed_ref=1 / me_range=16 / chroma_me=1 / trellis=1 / 8x8dct=1 / cqm=0 / deadzone=21,11 / fast_pskip=1 / chroma_qp_offset=-2 / threads=12 / lookahead_threads=2 / sliced_threads=0 / nr=0 / decimate=1 / interlaced=0 / bluray_compat=0 / constrained_intra=0 / bframes=3 / b_pyramid=2 / b_adapt=2 / b_bias=0 / direct=3 / weightb=1 / open_gop=0 / weightp=2 / keyint=240 / keyint_min=24 / scenecut=40 / intra_refresh=0 / rc_lookahead=50 / rc=2pass / mbtree=1 / bitrate=5959 / ratetol=1.0 / qcomp=0.60 / qpmin=0 / qpmax=69 / qpstep=4 / cplxblur=20.0 / qblur=0.5 / ip_ratio=1.40 / aq=1:1.00
Language : English
Default : Yes
Forced : No

Audio
ID : 2
Format : DTS
Format/Info : Digital Theater Systems
Mode : 16
Format settings, Endianness : Big
Codec ID : A_DTS
Duration : 1h 44mn
Bit rate mode : Constant
Bit rate : 1 509 Kbps
Channel(s) : 6 channels
Channel positions : Front: L C R, Side: L R, LFE
Sampling rate : 48.0 KHz
Bit depth : 24 bits
Compression mode : Lossy
Stream size : 1.10 GiB (20%)
Language : English
Default : Yes
Forced : No

Text
ID : 3
Format : UTF-8
Codec ID : S_TEXT/UTF8
Codec ID/Info : UTF-8 Plain Text
Language : English
Default : No
Forced : No

General
Complete name : the.blue.lagoon.1980.1080p.bluray.x264-psychd.mkv
Format : Matroska
Format version : Version 2
File size : 8.75 GiB
Duration : 1h 44mn
Overall bit rate : 12.0 Mbps
Writing application : mkvmerge v4.1.1 ('Bouncin' Back') built on Jul 3 2010 22:54:08
Writing library : libebml v1.0.0 + libmatroska v1.0

Video
ID : 1
Format : AVC
Format/Info : Advanced Video Codec
Format profile : High@L4.1
Format settings, CABAC : Yes
Format settings, ReFrames : 4 frames
Codec ID : V_MPEG4/ISO/AVC
Duration : 1h 44mn
Bit rate : 10.4 Mbps
Width : 1 920 pixels
Height : 1 040 pixels
Display aspect ratio : 1.85:1
Frame rate mode : Constant
Frame rate : 23.976 fps
Color space : YUV
Chroma subsampling : 4:2:0
Bit depth : 8 bits
Scan type : Progressive
Bits/(Pixel*Frame) : 0.218
Stream size : 7.47 GiB (85%)
Writing library : x264 core 129 r2230 1cffe9f
Encoding settings : cabac=1 / ref=4 / deblock=1:0:0 / analyse=0x3:0x113 / me=umh / subme=8 / psy=1 / psy_rd=1.00:0.00 / mixed_ref=1 / me_range=16 / chroma_me=1 / trellis=1 / 8x8dct=1 / cqm=0 / deadzone=21,11 / fast_pskip=1 / chroma_qp_offset=-2 / threads=12 / lookahead_threads=2 / sliced_threads=0 / nr=0 / decimate=1 / interlaced=0 / bluray_compat=0 / constrained_intra=0 / bframes=3 / b_pyramid=2 / b_adapt=2 / b_bias=0 / direct=3 / weightb=1 / open_gop=0 / weightp=2 / keyint=240 / keyint_min=24 / scenecut=40 / intra_refresh=0 / rc_lookahead=50 / rc=2pass / mbtree=1 / bitrate=10444 / ratetol=1.0 / qcomp=0.60 / qpmin=0 / qpmax=69 / qpstep=4 / cplxblur=20.0 / qblur=0.5 / ip_ratio=1.40 / aq=1:1.00
Language : English
Default : Yes
Forced : No

Audio
ID : 2
Format : DTS
Format/Info : Digital Theater Systems
Mode : 16
Format settings, Endianness : Big
Codec ID : A_DTS
Duration : 1h 44mn
Bit rate mode : Constant
Bit rate : 1 509 Kbps
Channel(s) : 6 channels
Channel positions : Front: L C R, Side: L R, LFE
Sampling rate : 48.0 KHz
Bit depth : 24 bits
Compression mode : Lossy
Stream size : 1.10 GiB (13%)
Language : English
Default : Yes
Forced : No

Text
ID : 3
Format : UTF-8
Codec ID : S_TEXT/UTF8
Codec ID/Info : UTF-8 Plain Text
Language : English
Default : No
Forced : No


screenshots - BDRip 720p:

The Blue Lagoon (1980)

The Blue Lagoon (1980)

The Blue Lagoon (1980)


screenshots - BDRip 1080p:

The Blue Lagoon (1980)

The Blue Lagoon (1980)

The Blue Lagoon (1980)


Welcome to My Blog!

No more mirrors!

If you want to download it, but found out that links are dead, just leave a comment or PM me!
Download Links:
Uploaded | Rapidgator - BDRip 720p
Uploaded | Rapidgator - BDRip 1080p
Links to RapidGator and Uploaded are inside the html file. Download the file and open it in your browser.