Subcategories

The Chinese Connection / Jing wu men (1972)

Posted By: Without
The Chinese Connection / Jing wu men (1972)

The Chinese Connection / Jing wu men (1972)
BDRip 720p | MKV | 1280x544 | AVC@4278 kb/s | English DTS@1509 kb/s | 6 channels | 1 h 46 min | 4.84 GB
Genre: Action, Drama, Romance

A young man seeks vengence for the death of his teacher.

IMDB - 2 wins & 1 nomination


General
Unique ID : 202761302670268009774247020131399405096 (0x988A680C4ACA23678B7F0C7E58668E28)
Complete name : J:\lmx-todesgruesse720p.mkv
Format : Matroska
Format version : Version 4 / Version 2
File size : 4.84 GiB
Duration : 1 h 46 min
Overall bit rate : 6 495 kb/s
Movie name : mixed by LameMIX
Encoded date : UTC 2016-12-20 14:48:31
Writing application : mkvmerge v9.2.0 ('Photograph') 32bit
Writing library : libebml v1.3.3 + libmatroska v1.4.4

Video
ID : 1
Format : AVC
Format/Info : Advanced Video Codec
Format profile : High@L3.1
Format settings, CABAC : Yes
Format settings, ReFrames : 4 frames
Codec ID : V_MPEG4/ISO/AVC
Duration : 1 h 46 min
Bit rate : 4 278 kb/s
Width : 1 280 pixels
Height : 544 pixels
Display aspect ratio : 2.35:1
Frame rate mode : Constant
Frame rate : 23.976 (24000/1001) FPS
Color space : YUV
Chroma subsampling : 4:2:0
Bit depth : 8 bits
Scan type : Progressive
Bits/(Pixel*Frame) : 0.256
Stream size : 3.19 GiB (66%)
Writing library : x264 core 148 r2638 7599210
Encoding settings : cabac=1 / ref=3 / deblock=1:-3:-3 / analyse=0x3:0x113 / me=hex / subme=7 / psy=1 / psy_rd=1.00:0.00 / mixed_ref=1 / me_range=16 / chroma_me=1 / trellis=1 / 8x8dct=1 / cqm=0 / deadzone=21,11 / fast_pskip=1 / chroma_qp_offset=-2 / threads=12 / lookahead_threads=2 / sliced_threads=0 / nr=0 / decimate=1 / interlaced=0 / bluray_compat=0 / constrained_intra=0 / bframes=3 / b_pyramid=2 / b_adapt=1 / b_bias=0 / direct=1 / weightb=1 / open_gop=0 / weightp=2 / keyint=240 / keyint_min=23 / scenecut=40 / intra_refresh=0 / rc_lookahead=40 / rc=2pass / mbtree=1 / bitrate=4278 / ratetol=1.0 / qcomp=0.60 / qpmin=10 / qpmax=51 / qpstep=4 / cplxblur=20.0 / qblur=0.5 / ip_ratio=1.40 / aq=1:1.00
Language : English
Default : Yes
Forced : No

Audio
ID : 2
Format : DTS
Format/Info : Digital Theater Systems
Format profile : MA / Core
Mode : 16
Format settings, Endianness : Big
Codec ID : A_DTS
Duration : 1 h 46 min
Bit rate mode : Variable / Constant
Bit rate : 2 215 kb/s / 1 509 kb/s
Channel(s) : 6 channels
Channel positions : Front: L C R, Side: L R, LFE
Sampling rate : 48.0 kHz
Frame rate : 93.750 FPS (512 spf)
Bit depth : 24 bits
Compression mode : Lossless / Lossy
Stream size : 1.65 GiB (34%)
Language : English
Default : No
Forced : No

Menu
00:00:00.000 : :Kapitel 1
00:05:01.000 : :Kapitel 2
00:10:01.000 : :Kapitel 3
00:15:01.000 : :Kapitel 4
00:20:01.000 : :Kapitel 5
00:25:01.000 : :Kapitel 6
00:30:01.000 : :Kapitel 7
00:35:01.000 : :Kapitel 8
00:40:01.000 : :Kapitel 9
00:45:01.000 : :Kapitel 10
00:50:01.000 : :Kapitel 11
00:55:01.000 : :Kapitel 12
01:00:01.000 : :Kapitel 13
01:05:01.000 : :Kapitel 14
01:10:01.000 : :Kapitel 15
01:15:01.000 : :Kapitel 16
01:20:01.000 : :Kapitel 17
01:25:01.000 : :Kapitel 18
01:30:01.000 : :Kapitel 19
01:35:01.000 : :Kapitel 20
01:40:01.000 : :Kapitel 21


BDRip 720p Screenshots

The Chinese Connection / Jing wu men (1972)

The Chinese Connection / Jing wu men (1972)

The Chinese Connection / Jing wu men (1972)

The Chinese Connection / Jing wu men (1972)


Come Visit My Blog (•‿•)