The Gulf War (1996)

Posted By: vivid23
The Gulf War (1996)

The Gulf War (1996)
DVDrip | 624x464 | AVI/XviD @ 1437 Kbps | 4x59mn | Audio: English AC3 192 kbps, 2 channels | Subs: None | 4x696 MB
Genre: Documentary

Four-part documentary of the 1991 Gulf War made by the BBC. Contains interviews with many prominent figures of the war, including Colin Powell, Norman Schwarzkopf, Margaret Thatcher, Dick Cheney, Robert Gates, Tariq Aziz (Iraqi Foreign Minister), and Hosni Mubarak.

More info

Video
ID : 0
Format : MPEG-4 Visual
Format profile : Advanced Simple@L5
Format settings, BVOP : Yes
Format settings, QPel : No
Format settings, GMC : No warppoints
Format settings, Matrix : Default (MPEG)
Muxing mode : Packed bitstream
Codec ID : XVID
Codec ID/Hint : XviD
Duration : 59mn 25s
Bit rate : 1 437 Kbps
Width : 624 pixels
Height : 464 pixels
Display aspect ratio : 4:3
Frame rate : 25.000 fps
Color space : YUV
Chroma subsampling : 4:2:0
Bit depth : 8 bits
Scan type : Progressive
Compression mode : Lossy
Bits/(Pixel*Frame) : 0.199
Stream size : 611 MiB (88%)
Writing library : XviD 1.0.0 (UTC 2004-05-09)

Audio
ID : 1
Format : AC-3
Format/Info : Audio Coding 3
Mode extension : CM (complete main)
Codec ID : 2000
Duration : 59mn 25s
Bit rate mode : Constant
Bit rate : 192 Kbps
Channel(s) : 2 channels
Channel positions : Front: L R
Sampling rate : 48.0 KHz
Bit depth : 16 bits
Compression mode : Lossy
Stream size : 81.6 MiB (12%)
Alignment : Split accross interleaves
Interleave, duration : 40 ms (1.00 video frame)
Interleave, preload duration : 500 ms


The Gulf War (1996)

The Gulf War (1996)


Feel free to contact me when links are dead