Subcategories

The Hidden (1987)

Posted By: Without
The Hidden (1987)

The Hidden (1987)
BDRip 720p | MKV | 1280x720 | AVC@6548 kb/s | English DTS@1509 kb/s
Subs: English | 6 channels | 1 h 37 min | 5.46 GB
BDRip 1080p | MKV | 1920x1080 | AVC@13.0 Mb/s | English DTS@1509 kb/s
Subs: English | 6 channels | 1 h 37 min | 9.84 GB
Genre: Action, Crime, Horror

An alien parasite with the ability to possess human bodies goes on a violent crime spree in L.A. A human cop, detective Tom Beck, and an alien cop posing as a young FBI agent Lloyd Gallagher both pursue the parasite who frequently changes his human hosts.

IMDB - 4 wins & 6 nominations.


General
The.Hidden.1987.720p.BluRay.X264-AMIABLE\The.Hidden.1987.720p.BluRay.X264-AMIABLE.mkv
Format : Matroska
Format version : Version 4 / Version 2
File size : 5.46 GiB
Duration : 1 h 37 min
Overall bit rate : 8 058 kb/s
Encoded date : UTC 2010-02-22 21:41:29
Writing application : no_variable_data
Writing library : no_variable_data

Video
ID : 1
Format : AVC
Format/Info : Advanced Video Codec
Format profile : High@L4.1
Format settings, CABAC : Yes
Format settings, ReFrames : 5 frames
Codec ID : V_MPEG4/ISO/AVC
Duration : 1 h 37 min
Bit rate : 6 548 kb/s
Width : 1 280 pixels
Height : 720 pixels
Display aspect ratio : 16:9
Frame rate mode : Constant
Frame rate : 23.976 (24000/1001) FPS
Color space : YUV
Chroma subsampling : 4:2:0
Bit depth : 8 bits
Scan type : Progressive
Bits/(Pixel*Frame) : 0.296
Stream size : 4.33 GiB (79%)
Writing library : x264 core 152 r2851 ba24899
Encoding settings : cabac=1 / ref=5 / deblock=1:-3:-3 / analyse=0x3:0x113 / me=umh / subme=8 / psy=1 / psy_rd=1.10:0.00 / mixed_ref=1 / me_range=24 / chroma_me=1 / trellis=2 / 8x8dct=1 / cqm=0 / deadzone=21,11 / fast_pskip=1 / chroma_qp_offset=-2 / threads=22 / lookahead_threads=3 / sliced_threads=0 / nr=0 / decimate=1 / interlaced=0 / bluray_compat=0 / constrained_intra=0 / bframes=3 / b_pyramid=2 / b_adapt=2 / b_bias=0 / direct=3 / weightb=1 / open_gop=0 / weightp=2 / keyint=240 / keyint_min=24 / scenecut=40 / intra_refresh=0 / rc_lookahead=50 / rc=2pass / mbtree=1 / bitrate=6548 / ratetol=1.0 / qcomp=0.60 / qpmin=0 / qpmax=69 / qpstep=4 / cplxblur=20.0 / qblur=0.5 / ip_ratio=1.40 / aq=3:0.75
Default : Yes
Forced : No
Statistics Tags Issue : no_variable_data 1970-01-01 00:00:00 / no_variable_data 2010-02-22 21:41:29
FromStats_BitRate : 6546102
FromStats_Duration : 01:37:04.152000000
FromStats_FrameCount : 139640
FromStats_StreamSize : 4765687233

Audio
ID : 2
Format : DTS
Format/Info : Digital Theater Systems
Mode : 16
Format settings, Endianness : Big
Codec ID : A_DTS
Duration : 1 h 37 min
Bit rate mode : Constant
Bit rate : 1 509 kb/s
Channel(s) : 6 channels
Channel positions : Front: L C R, Side: L R, LFE
Sampling rate : 48.0 kHz
Frame rate : 93.750 FPS (512 spf)
Bit depth : 24 bits
Compression mode : Lossy
Stream size : 1.02 GiB (19%)
Language : English
Default : Yes
Forced : No
Statistics Tags Issue : no_variable_data 1970-01-01 00:00:00 / no_variable_data 2010-02-22 21:41:29
FromStats_BitRate : 1508999
FromStats_Duration : 01:37:04.182000000
FromStats_FrameCount : 546017
FromStats_StreamSize : 1098586204

Text #1
ID : 3
Format : UTF-8
Codec ID : S_TEXT/UTF8
Codec ID/Info : UTF-8 Plain Text
Language : English
Default : No
Forced : No
Statistics Tags Issue : no_variable_data 1970-01-01 00:00:00 / no_variable_data 2010-02-22 21:41:29
FromStats_BitRate : 50
FromStats_Duration : 01:35:46.283000000
FromStats_FrameCount : 1337
FromStats_StreamSize : 36339

Text #2
ID : 4
Format : UTF-8
Codec ID : S_TEXT/UTF8
Codec ID/Info : UTF-8 Plain Text
Title : SDH
Language : English
Default : No
Forced : No
Statistics Tags Issue : no_variable_data 1970-01-01 00:00:00 / no_variable_data 2010-02-22 21:41:29
FromStats_BitRate : 54
FromStats_Duration : 01:36:38.168000000
FromStats_FrameCount : 1470
FromStats_StreamSize : 39392

Menu
00:00:00.000 : en:00:00:00.000
00:03:04.726 : en:00:03:04.726
00:08:19.457 : en:00:08:19.457
00:12:20.865 : en:00:12:20.865
00:16:27.528 : en:00:16:27.528
00:21:30.456 : en:00:21:30.456
00:24:57.079 : en:00:24:57.079
00:29:15.587 : en:00:29:15.587
00:31:44.319 : en:00:31:44.319
00:35:40.180 : en:00:35:40.180
00:41:32.031 : en:00:41:32.031
00:45:39.904 : en:00:45:39.904
00:51:02.059 : en:00:51:02.059
01:00:25.413 : en:01:00:25.413
01:06:59.891 : en:01:06:59.891
01:11:10.016 : en:01:11:10.016
01:15:06.627 : en:01:15:06.627
01:20:38.292 : en:01:20:38.292
01:25:52.689 : en:01:25:52.689
01:29:09.803 : en:01:29:09.803
01:32:58.490 : en:01:32:58.490

General
The.Hidden.1987.1080p.BluRay.X264-AMIABLE\The.Hidden.1987.1080p.BluRay.X264-AMIABLE.mkv
Format : Matroska
Format version : Version 4 / Version 2
File size : 9.84 GiB
Duration : 1 h 37 min
Overall bit rate : 14.5 Mb/s
Encoded date : UTC 2010-02-22 21:41:29
Writing application : no_variable_data
Writing library : no_variable_data

Video
ID : 1
Format : AVC
Format/Info : Advanced Video Codec
Format profile : High@L4.1
Format settings, CABAC : Yes
Format settings, ReFrames : 4 frames
Codec ID : V_MPEG4/ISO/AVC
Duration : 1 h 37 min
Bit rate : 13.0 Mb/s
Width : 1 920 pixels
Height : 1 080 pixels
Display aspect ratio : 16:9
Frame rate mode : Constant
Frame rate : 23.976 (24000/1001) FPS
Color space : YUV
Chroma subsampling : 4:2:0
Bit depth : 8 bits
Scan type : Progressive
Bits/(Pixel*Frame) : 0.261
Stream size : 8.62 GiB (88%)
Writing library : x264 core 152 r2851 ba24899
Encoding settings : cabac=1 / ref=4 / deblock=1:-3:-3 / analyse=0x3:0x113 / me=umh / subme=8 / psy=1 / psy_rd=1.10:0.00 / mixed_ref=1 / me_range=32 / chroma_me=1 / trellis=2 / 8x8dct=1 / cqm=0 / deadzone=21,11 / fast_pskip=1 / chroma_qp_offset=-2 / threads=24 / lookahead_threads=4 / sliced_threads=0 / nr=0 / decimate=1 / interlaced=0 / bluray_compat=0 / constrained_intra=0 / bframes=3 / b_pyramid=2 / b_adapt=2 / b_bias=0 / direct=3 / weightb=1 / open_gop=0 / weightp=2 / keyint=240 / keyint_min=24 / scenecut=40 / intra_refresh=0 / rc_lookahead=50 / rc=2pass / mbtree=1 / bitrate=13000 / ratetol=1.0 / qcomp=0.60 / qpmin=0 / qpmax=69 / qpstep=4 / cplxblur=20.0 / qblur=0.5 / ip_ratio=1.40 / aq=3:0.75
Default : Yes
Forced : No
Statistics Tags Issue : no_variable_data 1970-01-01 00:00:00 / no_variable_data 2010-02-22 21:41:29
FromStats_BitRate : 12996054
FromStats_Duration : 01:37:04.152000000
FromStats_FrameCount : 139640
FromStats_StreamSize : 9461374287

Audio
ID : 2
Format : DTS
Format/Info : Digital Theater Systems
Mode : 16
Format settings, Endianness : Big
Codec ID : A_DTS
Duration : 1 h 37 min
Bit rate mode : Constant
Bit rate : 1 509 kb/s
Channel(s) : 6 channels
Channel positions : Front: L C R, Side: L R, LFE
Sampling rate : 48.0 kHz
Frame rate : 93.750 FPS (512 spf)
Bit depth : 24 bits
Compression mode : Lossy
Stream size : 1.02 GiB (10%)
Language : English
Default : Yes
Forced : No
Statistics Tags Issue : no_variable_data 1970-01-01 00:00:00 / no_variable_data 2010-02-22 21:41:29
FromStats_BitRate : 1508999
FromStats_Duration : 01:37:04.182000000
FromStats_FrameCount : 546017
FromStats_StreamSize : 1098586204

Text #1
ID : 3
Format : UTF-8
Codec ID : S_TEXT/UTF8
Codec ID/Info : UTF-8 Plain Text
Language : English
Default : No
Forced : No
Statistics Tags Issue : no_variable_data 1970-01-01 00:00:00 / no_variable_data 2010-02-22 21:41:29
FromStats_BitRate : 50
FromStats_Duration : 01:35:46.283000000
FromStats_FrameCount : 1337
FromStats_StreamSize : 36339

Text #2
ID : 4
Format : UTF-8
Codec ID : S_TEXT/UTF8
Codec ID/Info : UTF-8 Plain Text
Title : SDH
Language : English
Default : No
Forced : No
Statistics Tags Issue : no_variable_data 1970-01-01 00:00:00 / no_variable_data 2010-02-22 21:41:29
FromStats_BitRate : 54
FromStats_Duration : 01:36:38.168000000
FromStats_FrameCount : 1470
FromStats_StreamSize : 39392

Menu
00:00:00.000 : en:00:00:00.000
00:03:04.726 : en:00:03:04.726
00:08:19.457 : en:00:08:19.457
00:12:20.865 : en:00:12:20.865
00:16:27.528 : en:00:16:27.528
00:21:30.456 : en:00:21:30.456
00:24:57.079 : en:00:24:57.079
00:29:15.587 : en:00:29:15.587
00:31:44.319 : en:00:31:44.319
00:35:40.180 : en:00:35:40.180
00:41:32.031 : en:00:41:32.031
00:45:39.904 : en:00:45:39.904
00:51:02.059 : en:00:51:02.059
01:00:25.413 : en:01:00:25.413
01:06:59.891 : en:01:06:59.891
01:11:10.016 : en:01:11:10.016
01:15:06.627 : en:01:15:06.627
01:20:38.292 : en:01:20:38.292
01:25:52.689 : en:01:25:52.689
01:29:09.803 : en:01:29:09.803
01:32:58.490 : en:01:32:58.490


BDRip 720p Screenshots

The Sunday Times Culture - 19 November 2017

The Sunday Times Culture - 19 November 2017

The Sunday Times Culture - 19 November 2017


BDRip 1080p Screenshots

The Sunday Times Culture - 19 November 2017

The Sunday Times Culture - 19 November 2017

The Sunday Times Culture - 19 November 2017


Come Visit My Blog (•‿•)