The Master (2012)

Posted By: NaVi7
The Master (2012)

The Master (2012)
BDRip 480p | AVI / XVID, 1585 Kbps | 720x304 | 2h 17mn | 1.96 GB
English: AC3, 448 Kbps (6 ch)
Genre: Drama

Returning from Navy service in World War II, Freddie Quell drifts through a series of PTSD-driven breakdowns. Finally he stumbles upon a cult which engages in exercises to clear emotions and he becomes deeply involved with them.

imdb - Nominated for 3 Oscars. Another 53 wins & 72 nominations.

General
Complete name : The.Master.2012.480p.BRRip.XviD.AC3-PTpOWeR.avi
Format : AVI
Format/Info : Audio Video Interleave
File size : 1.96 GiB
Duration : 2h 17mn
Overall bit rate : 2 043 Kbps
Writing application : VirtualDubMod 1.5.10.2 (build 2540/release)
Writing library : VirtualDubMod build 2540/release

Video
ID : 0
Format : MPEG-4 Visual
Format profile : Advanced Simple@L5
Format settings, BVOP : 2
Format settings, QPel : No
Format settings, GMC : No warppoints
Format settings, Matrix : Default (H.263)
Muxing mode : Packed bitstream
Codec ID : XVID
Codec ID/Hint : XviD
Duration : 2h 17mn
Bit rate : 1 585 Kbps
Width : 720 pixels
Height : 384 pixels
Display aspect ratio : 1.85:1
Frame rate : 23.976 fps
Color space : YUV
Chroma subsampling : 4:2:0
Bit depth : 8 bits
Scan type : Progressive
Compression mode : Lossy
Bits/(Pixel*Frame) : 0.239
Stream size : 1.52 GiB (78%)
Writing library : XviD 63

Audio
ID : 1
Format : AC-3
Format/Info : Audio Coding 3
Mode extension : CM (complete main)
Format settings, Endianness : Big
Codec ID : 2000
Duration : 2h 17mn
Bit rate mode : Constant
Bit rate : 448 Kbps
Channel(s) : 6 channels
Channel positions : Front: L C R, Side: L R, LFE
Sampling rate : 48.0 KHz
Bit depth : 16 bits
Compression mode : Lossy
Stream size : 441 MiB (22%)
Alignment : Split accross interleaves
Interleave, duration : 42 ms (1.00 video frame)
Interleave, preload duration : 500 ms


screenshots:

The Master (2012)

The Master (2012)

The Master (2012)


Welcome to My Blog!

Subscribe to My Newsletter!

No more mirrors!

If you want to download it, but found out that links are dead, just leave a comment or PM me!
Download Links:
Uploaded | Rapidgator
Links to RapidGator and Uploaded are inside the html file. Download the file and open it in your browser.