Tags
Language
Tags

The Mumbai Siege 4 Days of Terror / One Less God (2017)

Posted By: Without
1080p (FullHD) / WEB-DL IMDb
The Mumbai Siege 4 Days of Terror / One Less God (2017)

The Mumbai Siege 4 Days of Terror / One Less God (2017)
HDRip | MKV | 720x384 | AVC@1219 kb/s | English AC3@384 kb/s | 6 channels | 2 h 12 min | 1.48 GB
WEB-DL 720p | AVI | 1280x694 | XviD@4424 kb/s | English AC3@384 kb/s | 6 channels | 2 h 12 min | 4.44 GB
WEB-DL 1080p | MKV | 1904x1032 | AVC@5072 kb/s | English AC3@384 kb/s | 6 channels | 2 h 12 min | 5.03 GB
Genre: Drama, Thriller

In 2008, a band of young Islamic militants from Pakistan lands in Mumbai, their primary target, the iconic Taj Mahal hotel. With Indian forces unable to regain control, for 4 days the guests must battle to survive as the terrorists seek to drive them from hiding. The harrowing events that follow will come to be known as India's 9/11 and one of the most audacious terrorist attacks in history. Yet more than a tale of monsters and men, this is a story of our shared humanity at the dark crossroads to which we have now stumbled. Inspired by true events.



General
The.Mumbai.Siege.4.Days.of.Terror.2018.HDRip.XviD.AC3-EVO.avi
Format : Matroska
Format version : Version 4 / Version 2
File size : 1.49 GiB
Duration : 2 h 12 min
Overall bit rate : 1 610 kb/s
Encoded date : UTC 2018-09-23T23:31:55Z
Writing application : HandBrake 1.1.0 2018040700
Writing library : Lavf57.7.2 / Lavf57.7.2

Video
ID : 1
Format : AVC
Format/Info : Advanced Video Codec
Format profile : High@L4
Format settings, CABAC : Yes
Format settings, ReFrames : 4 frames
Codec ID : V_MPEG4/ISO/AVC
Duration : 2 h 12 min
Bit rate : 1 219 kb/s
Width : 720 pixels
Height : 384 pixels
Display aspect ratio : 1.85:1
Frame rate mode : Constant
Frame rate : 25.000 FPS
Color space : YUV
Chroma subsampling : 4:2:0
Bit depth : 8 bits
Scan type : Progressive
Bits/(Pixel*Frame) : 0.176
Stream size : 1.10 GiB (74%)
Writing library : x264 core 155 r2893 b00bcaf
Encoding settings : cabac=1 / ref=1 / deblock=1:0:0 / analyse=0x3:0x113 / me=hex / subme=2 / psy=1 / psy_rd=1.00:0.00 / mixed_ref=0 / me_range=16 / chroma_me=1 / trellis=0 / 8x8dct=1 / cqm=0 / deadzone=21,11 / fast_pskip=1 / chroma_qp_offset=0 / threads=12 / lookahead_threads=3 / sliced_threads=0 / nr=0 / decimate=1 / interlaced=0 / bluray_compat=0 / constrained_intra=0 / bframes=3 / b_pyramid=2 / b_adapt=1 / b_bias=0 / direct=1 / weightb=1 / open_gop=0 / weightp=1 / keyint=250 / keyint_min=25 / scenecut=40 / intra_refresh=0 / rc_lookahead=10 / rc=abr / mbtree=1 / bitrate=1219 / ratetol=1.0 / qcomp=0.60 / qpmin=0 / qpmax=69 / qpstep=4 / vbv_maxrate=25000 / vbv_bufsize=31250 / nal_hrd=none / filler=0 / ip_ratio=1.40 / aq=1:1.00
Default : Yes
Forced : No
Color range : Limited
Color primaries : BT.709
Transfer characteristics : BT.709
Matrix coefficients : BT.709

Audio
ID : 2
Format : AC-3
Format/Info : Audio Coding 3
Mode extension : CM (complete main)
Format settings, Endianness : Big
Codec ID : A_AC3
Duration : 2 h 12 min
Bit rate mode : Constant
Bit rate : 384 kb/s
Channel(s) : 6 channels
Channel positions : Front: L C R, Side: L R, LFE
Sampling rate : 48.0 kHz
Frame rate : 31.250 FPS (1536 spf)
Bit depth : 16 bits
Compression mode : Lossy
Delay relative to video : -40 ms
Stream size : 363 MiB (24%)
Title : Surround
Language : English
Default : Yes
Forced : No

Menu
00:00:00.040 : :Chapter 1
00:09:56.000 : :Chapter 2
00:17:06.000 : :Chapter 3
00:27:10.040 : :Chapter 4
00:43:17.000 : :Chapter 5
00:55:15.040 : :Chapter 6
01:01:02.000 : :Chapter 7
01:15:19.040 : :Chapter 8
01:24:18.040 : :Chapter 9
01:35:00.000 : :Chapter 10
01:50:49.000 : :Chapter 11
02:06:09.040 : :Chapter 12


General
The.Mumbai.Siege.4.Days.of.Terror.2018.720p.WEB-DL.XviD.AC3-FGT.avi
Format : AVI
Format/Info : Audio Video Interleave
Format profile : OpenDML
File size : 4.45 GiB
Duration : 2 h 12 min
Overall bit rate : 4 817 kb/s
Movie name : The.Mumbai.Siege.4.Days.of.Terror.2018.720p.WEB-DL.XviD.AC3-FGT
Writing library : VirtualDub build 35491/release
Comment : The.Mumbai.Siege.4.Days.of.Terror.2018.720p.WEB-DL.XviD.AC3-FGT

Video
ID : 0
Format : MPEG-4 Visual
Format profile : Simple@L5
Format settings, BVOP : No
Format settings, QPel : No
Format settings, GMC : No warppoints
Format settings, Matrix : Default (H.263)
Codec ID : XVID
Codec ID/Hint : XviD
Duration : 2 h 12 min
Bit rate : 4 424 kb/s
Width : 1 280 pixels
Height : 694 pixels
Display aspect ratio : 1.85:1
Frame rate : 25.000 FPS
Color space : YUV
Chroma subsampling : 4:2:0
Bit depth : 8 bits
Scan type : Progressive
Compression mode : Lossy
Bits/(Pixel*Frame) : 0.199
Stream size : 4.08 GiB (92%)
Writing library : Lavc58.1.100

Audio
ID : 1
Format : AC-3
Format/Info : Audio Coding 3
Mode extension : CM (complete main)
Format settings, Endianness : Big
Codec ID : 2000
Duration : 2 h 12 min
Bit rate mode : Constant
Bit rate : 384 kb/s
Channel(s) : 6 channels
Channel positions : Front: L C R, Side: L R, LFE
Sampling rate : 48.0 kHz
Frame rate : 31.250 FPS (1536 spf)
Bit depth : 16 bits
Compression mode : Lossy
Stream size : 363 MiB (8%)
Alignment : Aligned on interleaves
Interleave, duration : 40 ms (1.00 video frame)
Interleave, preload duration : 512 ms


General
The.Mumbai.Siege.4.Days.of.Terror.2018.1080p.WEB-DL.H264.AC3-EVO.mkv
Format : Matroska
Format version : Version 4 / Version 2
File size : 5.04 GiB
Duration : 2 h 12 min
Overall bit rate : 5 458 kb/s
Encoded date : UTC 2018-09-23 23:29:24
Writing application : mkvmerge v14.0.0 ('Flow') 64bit
Writing library : libebml v1.3.4 + libmatroska v1.4.5

Video
ID : 2
Format : AVC
Format/Info : Advanced Video Codec
Format profile : High@L4
Format settings, CABAC : Yes
Format settings, ReFrames : 4 frames
Codec ID : V_MPEG4/ISO/AVC
Duration : 2 h 12 min
Bit rate : 5 072 kb/s
Width : 1 904 pixels
Height : 1 032 pixels
Display aspect ratio : 1.85:1
Frame rate mode : Constant
Frame rate : 25.000 FPS
Color space : YUV
Chroma subsampling : 4:2:0
Bit depth : 8 bits
Scan type : Progressive
Bits/(Pixel*Frame) : 0.103
Stream size : 4.68 GiB (93%)
Language : English
Default : Yes
Forced : No
Color range : Limited
Color primaries : BT.709
Transfer characteristics : BT.709
Matrix coefficients : BT.709

Audio
ID : 1
Format : AC-3
Format/Info : Audio Coding 3
Mode extension : CM (complete main)
Format settings, Endianness : Big
Codec ID : A_AC3
Duration : 2 h 12 min
Bit rate mode : Constant
Bit rate : 384 kb/s
Channel(s) : 6 channels
Channel positions : Front: L C R, Side: L R, LFE
Sampling rate : 48.0 kHz
Frame rate : 31.250 FPS (1536 spf)
Bit depth : 16 bits
Compression mode : Lossy
Delay relative to video : -40 ms
Stream size : 363 MiB (7%)
Language : English
Default : Yes
Forced : No

Menu
00:00:00.000 : en:Chapter 1
00:09:56.000 : en:Chapter 2
00:17:06.000 : en:Chapter 3
00:27:10.000 : en:Chapter 4
00:43:17.000 : en:Chapter 5
00:55:15.000 : en:Chapter 6
01:01:02.000 : en:Chapter 7
01:15:19.000 : en:Chapter 8
01:24:18.000 : en:Chapter 9
01:35:00.000 : en:Chapter 10
01:50:49.000 : en:Chapter 11
02:06:09.000 : en:Chapter 12



HDRip Screenshots

The Mumbai Siege 4 Days of Terror / One Less God (2017)

The Mumbai Siege 4 Days of Terror / One Less God (2017)

The Mumbai Siege 4 Days of Terror / One Less God (2017)


WEB-DL 720p Screenshots

The Mumbai Siege 4 Days of Terror / One Less God (2017)

The Mumbai Siege 4 Days of Terror / One Less God (2017)

The Mumbai Siege 4 Days of Terror / One Less God (2017)


WEB-DL 1080p Screenshots

The Mumbai Siege 4 Days of Terror / One Less God (2017)

The Mumbai Siege 4 Days of Terror / One Less God (2017)

The Mumbai Siege 4 Days of Terror / One Less God (2017)


Come Visit My Blog (•‿•)