The Refugees of the Blue Planet (2006)

Posted By: Polik88
The Refugees of the Blue Planet (2006)

The Refugees of the Blue Planet (2006)
DVDRip | English | AVI/XVID 23.976 fps 1716 Kbps | 688x384 | MP3 128 Kbps 48.0 khz | 53mn 11s | 700 MB
Genre: Documentary

"The Refugees Of The Blue Planet" is a very sad and truly moving documentary by Quebecois filmmakers, Hélène Choquette & Jean-Philippe Duval, about the ever growing phenomenon of environmental refugees. These are people who have been displaced as a result of the ever growing number of natural disasters (which the documentary argues are a result of global warming), or as a result of the negligence of corporations and governments who makes deals to extract hazardous resources on peoples land, utilize practices which degrade the environment, or force people off their land for the creation of monoculture farms. "They are constantly growing in number and often have no legal status, even though their right to a clean and sustainable environment has been violated." In numbers they have now surpassed the number of political and war refugees in the world (25 million:23 million). Oh and did I mention that these refugees aren't limited to third world and developing countries……it could be anyone. We are taken to three very different parts of the world where people are suffering from three very different problems, all of which have made them environmental refugees. These stories are juxtaposed with interviews made by numerous scholars, human rights and environmental activists.
General
Complete name : The.Refugees.Of.The.Blue.Planet.2006.avi
Format : AVI
Format/Info : Audio Video Interleave
File size : 700 MiB
Duration : 53mn 11s
Overall bit rate mode : Variable
Overall bit rate : 1 840 Kbps
Writing application : VirtualDubMod 1.5.4.1 (build 2178/release)
Writing library : VirtualDubMod build 2178/release

Video
ID : 0
Format : MPEG-4 Visual
Format profile : Advanced Simple@L5
Format settings, BVOP : 1
Format settings, QPel : No
Format settings, GMC : No warppoints
Format settings, Matrix : Custom
Codec ID : XVID
Codec ID/Hint : XviD
Duration : 53mn 11s
Bit rate : 1 716 Kbps
Width : 688 pixels
Height : 384 pixels
Display aspect ratio : 16:9
Frame rate : 23.976 fps
Color space : YUV
Chroma subsampling : 4:2:0
Bit depth : 8 bits
Scan type : Progressive
Compression mode : Lossy
Bits/(Pixel*Frame) : 0.271
Stream size : 653 MiB (93%)
Writing library : XviD 1.2.0.dev47 (UTC 2006-11-01)

Audio
ID : 1
Format : MPEG Audio
Format version : Version 1
Format profile : Layer 3
Mode : Joint stereo
Mode extension : MS Stereo
Codec ID : 55
Codec ID/Hint : MP3
Duration : 53mn 8s
Bit rate mode : Variable
Bit rate : 112 Kbps
Nominal bit rate : 128 Kbps
Channel(s) : 2 channels
Sampling rate : 48.0 KHz
Compression mode : Lossy
Stream size : 42.5 MiB (6%)
Alignment : Aligned on interleaves
Interleave, duration : 24 ms (0.58 video frame)
Interleave, preload duration : 497 ms
Writing library : LAME3.97
Encoding settings : -m j -V 4 -q 2 -lowpass 17 –abr 128
Language : English

Screenshots

The Refugees of the Blue Planet (2006)

The Refugees of the Blue Planet (2006)

The Refugees of the Blue Planet (2006)

no mirrors please, Follow The Rules
Visit Polik88 Blog Here
no password