Tags
Language
Tags

The Sand Dune (2018)

Posted By: Without
1080p (FullHD) / WEB-DL IMDb
The Sand Dune (2018)

The Sand Dune (2018)
HDRip | MKV | 1 h 29 min | 1.36 GB | 720x404 | AVC@1803 kb/s | English AC3@384 kb/s, 6 ch
WEB-DL 1080p | MKV | 1 h 29 min | 3.47 GB | 1916x1076 | AVC@5179 kb/s | English AC3@384 kb/s, 6 ch
Subs: English
Genre: Romance

It only takes one look, one touch, one kiss to know you've met the one person who will change your life forever. Such is the case for young Jake and Aylin as they venture into The Sand Dune that one fateful evening.



General
The.Sand.Dune.2019.HDRip.AC3.x264-CMRG.mkv
Format : Matroska
Format version : Version 4 / Version 2
File size : 1.36 GB
Duration : 1 h 29 min
Overall bit rate : 2174 kb/s
Movie name : The.Sand.Dune.2019.CMRG
Encoded date : UTC 2020-02-05 04:20:52
Writing application : mkvmerge v11.0.0 ('Alive') 64bit
Writing library : libebml v1.3.4 + libmatroska v1.4.5
Writing frontend : StaxRip v1.8.2.0

Video
ID : 1
Format : AVC
Format/Info : Advanced Video Codec
Format profile : High@L4.1
Format settings, CABAC : Yes
Format settings, ReFrames : 4 frames
Codec ID : V_MPEG4/ISO/AVC
Duration : 1 h 29 min
Bit rate : 1803 kb/s
Width : 720 pixels
Height : 404 pixels
Display aspect ratio : 16:9
Frame rate mode : Constant
Frame rate : 23.976 (24000/1001) FPS
Color space : YUV
Chroma subsampling : 4:2:0
Bit depth : 8 bits
Scan type : Progressive
Bits/(Pixel*Frame) : 0.259
Stream size : 1.12 GB (82%)
Writing library : x264 core 155 r2901 7d0ff22
Encoding settings : cabac=1 / ref=3 / deblock=1:-1:-1 / analyse=0x3:0x113 / me=hex / subme=7 / psy=1 / psy_rd=1.00:0.15 / mixed_ref=1 / me_range=16 / chroma_me=1 / trellis=1 / 8x8dct=1 / cqm=0 / deadzone=21,11 / fast_pskip=1 / chroma_qp_offset=-3 / threads=40 / lookahead_threads=3 / sliced_threads=0 / nr=0 / decimate=1 / interlaced=0 / bluray_compat=0 / constrained_intra=0 / bframes=3 / b_pyramid=2 / b_adapt=1 / b_bias=0 / direct=1 / weightb=1 / open_gop=0 / weightp=2 / keyint=250 / keyint_min=23 / scenecut=40 / intra_refresh=0 / rc_lookahead=40 / rc=abr / mbtree=1 / bitrate=1803 / ratetol=1.0 / qcomp=0.60 / qpmin=0 / qpmax=69 / qpstep=4 / ip_ratio=1.40 / aq=1:1.00
Default : Yes
Forced : No

Audio
ID : 2
Format : AC-3
Format/Info : Audio Coding 3
Mode extension : CM (complete main)
Format settings, Endianness : Big
Codec ID : A_AC3
Duration : 1 h 29 min
Bit rate mode : Constant
Bit rate : 384 kb/s
Channel(s) : 6 channels
Channel positions : Front: L C R, Side: L R, LFE
Sampling rate : 48.0 kHz
Frame rate : 31.250 FPS (1536 spf)
Bit depth : 16 bits
Compression mode : Lossy
Delay relative to video : 22 ms
Stream size : 246 MB (18%)
Language : English
Default : No
Forced : No

Text
ID : 3
Format : UTF-8
Codec ID : S_TEXT/UTF8
Codec ID/Info : UTF-8 Plain Text
Duration : 1 h 29 min
Bit rate : 97 b/s
Count of elements : 1303
Stream size : 63.4 KiB (0%)
Language : English
Default : Yes
Forced : No

Menu
00:00:00.000 : en:Chapter 1
00:10:00.600 : en:Chapter 2
00:20:21.304 : en:Chapter 3
00:30:24.824 : en:Chapter 4
00:39:46.427 : en:Chapter 5
00:49:45.901 : en:Chapter 6
01:01:10.709 : en:Chapter 7
01:09:47.392 : en:Chapter 8
01:18:13.855 : en:Chapter 9
01:26:55.918 : en:Chapter 10


General
The.Sand.Dune.2019.1080p.WEB-DL.H264.AC3-EVO.mkv
Format : Matroska
Format version : Version 4 / Version 2
File size : 3.47 GB
Duration : 1 h 29 min
Overall bit rate : 5565 kb/s
Encoded date : UTC 2020-02-05 03:42:14
Writing application : mkvmerge v35.0.0 ('All The Love In The World') 64-bit
Writing library : libebml v1.3.9 + libmatroska v1.5.2

Video
ID : 3
Format : AVC
Format/Info : Advanced Video Codec
Format profile : High@L4
Format settings, CABAC : Yes
Format settings, ReFrames : 4 frames
Codec ID : V_MPEG4/ISO/AVC
Duration : 1 h 29 min
Bit rate : 5179 kb/s
Width : 1916 pixels
Height : 1076 pixels
Display aspect ratio : 16:9
Frame rate mode : Constant
Frame rate : 23.976 (24000/1001) FPS
Color space : YUV
Chroma subsampling : 4:2:0
Bit depth : 8 bits
Scan type : Progressive
Bits/(Pixel*Frame) : 0.105
Stream size : 3.23 GB (93%)
Language : English
Default : Yes
Forced : No
Color range : Limited
Color primaries : BT.709
Transfer characteristics : BT.709
Matrix coefficients : BT.709

Audio
ID : 2
Format : AC-3
Format/Info : Audio Coding 3
Mode extension : CM (complete main)
Format settings, Endianness : Big
Codec ID : A_AC3
Duration : 1 h 29 min
Bit rate mode : Constant
Bit rate : 384 kb/s
Channel(s) : 6 channels
Channel positions : Front: L C R, Side: L R, LFE
Sampling rate : 48.0 kHz
Frame rate : 31.250 FPS (1536 spf)
Bit depth : 16 bits
Compression mode : Lossy
Delay relative to video : -42 ms
Stream size : 246 MB (7%)
Language : English
Default : Yes
Forced : No

Text
ID : 1
Format : UTF-8
Codec ID : S_TEXT/UTF8
Codec ID/Info : UTF-8 Plain Text
Duration : 1 h 29 min
Bit rate : 97 b/s
Count of elements : 1303
Stream size : 63.4 KiB (0%)
Language : English
Default : Yes
Forced : No

Menu
00:00:00.000 : en:Chapter 1
00:10:00.600 : en:Chapter 2
00:20:21.304 : en:Chapter 3
00:30:24.824 : en:Chapter 4
00:39:46.427 : en:Chapter 5
00:49:45.901 : en:Chapter 6
01:01:10.709 : en:Chapter 7
01:09:47.392 : en:Chapter 8
01:18:13.855 : en:Chapter 9
01:26:55.918 : en:Chapter 10



HDRip Screenshots

The Sand Dune (2018)

The Sand Dune (2018)

The Sand Dune (2018)


WEB-DL 1080p Screenshots

The Sand Dune (2018)

The Sand Dune (2018)

The Sand Dune (2018)


Come Visit My Blog (•‿•)