Tags
Language
Tags

National Film Board of Canada - They Chose China (2006)

Posted By: Tutorial
SD / WEB-DL
National Film Board of Canada - They Chose China (2006)

National Film Board of Canada - They Chose China (2006)
WEB-DL | 704 x 396 | .MKV/AVC @ 1200 Kbps | 52 min 29 s | 508 MB
Audio: English AAC 192 Kbps, 2 channels | Subs: English
Genre: Documentary

The story of twenty-one American POWs who, after the Korean War ended, chose to live in China instead of returning the USA.

General
Unique ID : 34896254533835202735552130437366755141 (0x1A40C62F0BD02C161E6877130A492F45)
Complete name : They.Chose.China.mkv
Format : Matroska
Format version : Version 4 / Version 2
File size : 508 MiB
Duration : 52 min 29 s
Overall bit rate : 1 353 kb/s
Encoded date : UTC 2020-09-27 02:50:44
Writing application : mkvmerge v49.0.0 ('Sick Of Losing Soulmates') 64-bit
Writing library : libebml v1.4.0 + libmatroska v1.6.1

Video
ID : 1
Format : AVC
Format/Info : Advanced Video Codec
Format profile : Main@L3
Format settings, CABAC : Yes
Format settings, ReFrames : 4 frames
Codec ID : V_MPEG4/ISO/AVC
Duration : 52 min 29 s
Bit rate : 1 200 kb/s
Width : 704 pixels
Height : 396 pixels
Display aspect ratio : 16:9
Frame rate mode : Constant
Frame rate : 29.970 (30000/1001) FPS
Color space : YUV
Chroma subsampling : 4:2:0
Bit depth : 8 bits
Scan type : Progressive
Bits/(Pixel*Frame) : 0.144
Stream size : 436 MiB (86%)
Title : They Chose China - Kanopy WEB-DL
Writing library : x264 core 148 r2795 aaa9aa8
Encoding settings : cabac=1 / ref=3 / deblock=1:0:0 / analyse=0x1:0x111 / me=hex / subme=7 / psy=1 / psy_rd=1.00:0.00 / mixed_ref=1 / me_range=16 / chroma_me=1 / trellis=1 / 8x8dct=0 / cqm=0 / deadzone=21,11 / fast_pskip=1 / chroma_qp_offset=-2 / threads=4 / lookahead_threads=1 / sliced_threads=0 / nr=0 / decimate=1 / interlaced=0 / bluray_compat=0 / constrained_intra=0 / bframes=3 / b_pyramid=2 / b_adapt=2 / b_bias=0 / direct=1 / weightb=1 / open_gop=0 / weightp=2 / keyint=infinite / keyint_min=29 / scenecut=40 / intra_refresh=0 / rc_lookahead=40 / rc=2pass / mbtree=1 / bitrate=1200 / ratetol=1.0 / qcomp=0.60 / qpmin=0 / qpmax=69 / qpstep=4 / cplxblur=20.0 / qblur=0.5 / vbv_maxrate=1200 / vbv_bufsize=1200 / nal_hrd=none / filler=0 / ip_ratio=1.40 / aq=1:1.00
Language : English
Default : Yes
Forced : No

Audio
ID : 2
Format : AAC
Format/Info : Advanced Audio Codec
Format profile : LC
Codec ID : A_AAC
Duration : 52 min 29 s
Bit rate : 192 kb/s
Channel(s) : 2 channels
Channel positions : Front: L R
Sampling rate : 48.0 kHz
Frame rate : 46.875 FPS (1024 spf)
Compression mode : Lossy
Delay relative to video : -21 ms
Stream size : 70.9 MiB (14%)
Title : AAC LC 2.0
Language : English
Default : Yes
Forced : No

Text
ID : 3
Format : UTF-8
Codec ID : S_TEXT/UTF8
Codec ID/Info : UTF-8 Plain Text
Duration : 51 min 9 s
Bit rate : 84 b/s
Count of elements : 784
Stream size : 31.5 KiB (0%)
Language : English
Default : Yes
Forced : No
Screenshots

National Film Board of Canada - They Chose China (2006)

National Film Board of Canada - They Chose China (2006)

National Film Board of Canada - They Chose China (2006)

Welcome to my blog - daily update!

National Film Board of Canada - They Chose China (2006)