Tags
Language
Tags

Third Eye Spies (2019)

Posted By: Without
1080p (FullHD) / WEB-DL IMDb
Third Eye Spies (2019)

Third Eye Spies (2019)
WEB-DL | MKV | 1 h 55 min | 1.30 GB | 720x404 | AVC@1494 kb/s | English AAC@125 kb/s, 2 ch
WEB-DL 720p | MKV | 1 h 55 min | 3.68 GB | 1280x720 | AVC@4345 kb/s | English AC3@224 kb/s, 2 ch
WEB-DL 1080p | MKV | 1 h 55 min | 6.74 GB | 1920x1080 | AVC@8147 kb/s | English AC3@224 kb/s, 2 ch
Subs: English
Genre: Documentary | Biography | History

Two physicists discover psychic abilities are real only to have their experiments at Stanford co-opted by the CIA and their research silenced by the demands of secrecy. Yet, as both these 'remote viewers' and our audience learn, the 'more you hide something, the more it shines like a beacon in psychic space and this ancient truth can no longer be suppressed.' The true story of Russell Targ and America's cold war psychic spies, disclosed and declassified for the first time, with evidence presented by a Nobel Laureate, an Apollo Astronaut, and the military and scientific community that has been suppressed for nearly 30 years, now able to speak for the first time. Targ's understated mantra that "the evidence for extra sensory perception is overwhelming and shows a talent we all share and deserve to know about, leaves us not just with a greater understanding of this unique chapter in U.S. history, but perhaps most importantly a greater understanding of who we are and our larger connection…



General
Third.Eye.Spies.2019.AMZN.WEB-DL.AAC2.0.H.264-NTG.mkv
Format : Matroska
Format version : Version 4 / Version 2
File size : 1.30 GB
Duration : 1 h 55 min
Overall bit rate : 1622 kb/s
Encoded date : UTC 2019-02-26 08:18:10
Writing application : mkvmerge v21.0.0 ('Tardigrades Will Inherit The Earth') 64-bit
Writing library : libebml v1.3.5 + libmatroska v1.4.8

Video
ID : 1
Format : AVC
Format/Info : Advanced Video Codec
Format profile : Main@L3
Format settings, CABAC : Yes
Format settings, ReFrames : 4 frames
Codec ID : V_MPEG4/ISO/AVC
Duration : 1 h 55 min
Bit rate mode : Constant
Bit rate : 1494 kb/s
Nominal bit rate : 2000 kb/s
Width : 720 pixels
Height : 404 pixels
Display aspect ratio : 16:9
Frame rate mode : Constant
Frame rate : 23.976 (24000/1001) FPS
Color space : YUV
Chroma subsampling : 4:2:0
Bit depth : 8 bits
Scan type : Progressive
Bits/(Pixel*Frame) : 0.214
Stream size : 1.20 GB (92%)
Default : Yes
Forced : No
Color range : Limited
Color primaries : BT.709
Transfer characteristics : BT.709
Matrix coefficients : BT.709

Audio
ID : 2
Format : AAC
Format/Info : Advanced Audio Codec
Format profile : LC
Codec ID : A_AAC
Duration : 1 h 55 min
Bit rate : 125 kb/s
Channel(s) : 2 channels
Channel positions : Front: L R
Sampling rate : 48.0 kHz
Frame rate : 46.875 FPS (1024 spf)
Compression mode : Lossy
Stream size : 103 MB (8%)
Language : English
Default : Yes
Forced : No

Text
ID : 3
Format : UTF-8
Codec ID : S_TEXT/UTF8
Codec ID/Info : UTF-8 Plain Text
Duration : 1 h 54 min
Bit rate : 103 b/s
Count of elements : 1906
Stream size : 86.9 KiB (0%)
Title : SDH
Language : English
Default : No
Forced : No


General
Third.Eye.Spies.2019.720p.AMZN.WEB-DL.DDP2.0.H.264-NTG.mkv
Format : Matroska
Format version : Version 4 / Version 2
File size : 3.68 GB
Duration : 1 h 55 min
Overall bit rate : 4571 kb/s
Encoded date : UTC 2019-02-26 08:16:36
Writing application : mkvmerge v21.0.0 ('Tardigrades Will Inherit The Earth') 64-bit
Writing library : libebml v1.3.5 + libmatroska v1.4.8

Video
ID : 1
Format : AVC
Format/Info : Advanced Video Codec
Format profile : High@L3.1
Format settings, CABAC : Yes
Format settings, ReFrames : 4 frames
Codec ID : V_MPEG4/ISO/AVC
Duration : 1 h 55 min
Bit rate mode : Constant
Bit rate : 4345 kb/s
Nominal bit rate : 6000 kb/s
Width : 1280 pixels
Height : 720 pixels
Display aspect ratio : 16:9
Frame rate mode : Constant
Frame rate : 23.976 (24000/1001) FPS
Color space : YUV
Chroma subsampling : 4:2:0
Bit depth : 8 bits
Scan type : Progressive
Bits/(Pixel*Frame) : 0.197
Stream size : 3.50 GB (95%)
Default : Yes
Forced : No
Color range : Limited
Color primaries : BT.709
Transfer characteristics : BT.709
Matrix coefficients : BT.709

Audio
ID : 2
Format : E-AC-3
Format/Info : Enhanced Audio Coding 3
Format settings, Endianness : Big
Codec ID : A_EAC3
Duration : 1 h 55 min
Bit rate mode : Constant
Bit rate : 224 kb/s
Channel(s) : 2 channels
Channel positions : Front: L R
Sampling rate : 48.0 kHz
Frame rate : 187.500 FPS (256 spf)
Compression mode : Lossy
Stream size : 185 MB (5%)
Language : English
Default : Yes
Forced : No

Text
ID : 3
Format : UTF-8
Codec ID : S_TEXT/UTF8
Codec ID/Info : UTF-8 Plain Text
Duration : 1 h 54 min
Bit rate : 103 b/s
Count of elements : 1906
Stream size : 86.9 KiB (0%)
Title : SDH
Language : English
Default : No
Forced : No


General
Third.Eye.Spies.2019.1080p.AMZN.WEB-DL.DDP2.0.H.264-NTG.mkv
Format : Matroska
Format version : Version 4 / Version 2
File size : 6.74 GB
Duration : 1 h 55 min
Overall bit rate : 8374 kb/s
Encoded date : UTC 2019-02-26 08:10:56
Writing application : mkvmerge v21.0.0 ('Tardigrades Will Inherit The Earth') 64-bit
Writing library : libebml v1.3.5 + libmatroska v1.4.8

Video
ID : 1
Format : AVC
Format/Info : Advanced Video Codec
Format profile : High@L4
Format settings, CABAC : Yes
Format settings, ReFrames : 4 frames
Codec ID : V_MPEG4/ISO/AVC
Duration : 1 h 55 min
Bit rate mode : Constant
Bit rate : 8147 kb/s
Nominal bit rate : 10000 kb/s
Width : 1920 pixels
Height : 1080 pixels
Display aspect ratio : 16:9
Frame rate mode : Constant
Frame rate : 23.976 (24000/1001) FPS
Color space : YUV
Chroma subsampling : 4:2:0
Bit depth : 8 bits
Scan type : Progressive
Bits/(Pixel*Frame) : 0.164
Stream size : 6.55 GB (97%)
Default : Yes
Forced : No
Color range : Limited
Color primaries : BT.709
Transfer characteristics : BT.709
Matrix coefficients : BT.709

Audio
ID : 2
Format : E-AC-3
Format/Info : Enhanced Audio Coding 3
Format settings, Endianness : Big
Codec ID : A_EAC3
Duration : 1 h 55 min
Bit rate mode : Constant
Bit rate : 224 kb/s
Channel(s) : 2 channels
Channel positions : Front: L R
Sampling rate : 48.0 kHz
Frame rate : 187.500 FPS (256 spf)
Compression mode : Lossy
Stream size : 185 MB (3%)
Language : English
Default : Yes
Forced : No

Text
ID : 3
Format : UTF-8
Codec ID : S_TEXT/UTF8
Codec ID/Info : UTF-8 Plain Text
Duration : 1 h 54 min
Bit rate : 103 b/s
Count of elements : 1906
Stream size : 86.9 KiB (0%)
Title : SDH
Language : English
Default : No
Forced : No



WEB-DL Screenshots

Third Eye Spies (2019)

Third Eye Spies (2019)

Third Eye Spies (2019)


WEB-DL 720p Screenshots

Third Eye Spies (2019)

Third Eye Spies (2019)

Third Eye Spies (2019)


WEB-DL 1080p Screenshots

Third Eye Spies (2019)

Third Eye Spies (2019)

Third Eye Spies (2019)


Come Visit My Blog (•‿•)