Tags
Language
Tags
April 2024
Su Mo Tu We Th Fr Sa
31 1 2 3 4 5 6
7 8 9 10 11 12 13
14 15 16 17 18 19 20
21 22 23 24 25 26 27
28 29 30 1 2 3 4

This Giant Beast That is the Global Economy (2019)

Posted By: notbanned
This Giant Beast That is the Global Economy (2019)

This Giant Beast That is the Global Economy (2019)
WEB-DL | 720x404 | .MKV/AVC @ 1379 Kbps | 8x~45min | 3.95 GiB
Subs: English, العربية, 中文, Dansk, Deutsch, Español, Suomi, Français, हिन्दी, Bahasa Indonesia,
Italiano, 한국어, Nederlands, Polski, Português, Русский, Svenska, Türkçe
Audio: English EAC3 192 kbps, 6 channels
Genre: Documentary

This docuseries brings the smart, stylized storytelling of Adam McKay's The Big Short to a quirky and compelling exploration of the global economy. In each episode, host Kal Penn – with the help of some celebrity friends – answers a burning question like: How can I launder a bag of dirty cash? How scared should I be of a rubber apocalypse? And is it easier for dicks to get rich?

1. Money Laundering: A How To Guide
How do you turn a suitcase full of dirty money into cash you can actually spend? To find out, Kal Penn travels across the globe – along with a million bucks. In this step-by-step guide, Kal learns from former cops and former criminals about how to gain access to a worldwide underground money laundering system.

2. Are Rich People Dicks or Do Dicks Get Rich
What is it about having a lot of money and a willingness to step over anyone to get more of it that seem to go together? Is there a correlation between "richness" and "dickness"? How about success in business and being a psychopath? Kal Penn meets some unapologetic one percenters - and travels to a country that has rigged the financial game in favor of its citizens.

3. The Rubber Episode
What if planes couldn't fly, or, more specifically, couldn't land? What if trucks couldn't transport food? This isn't some lame sci-fi plot. Without rubber, the economy as we know it ceases to exist. Kal Penn traces the path of rubber – from trees to tires to the tip of his p… uh… pencil… and uncovers a fundamental blind spot in the free market economy that is putting us all at risk.

4. A.I. is the future. Will it Keep us Around to Enjoy it?
Kal Penn meets artificial intelligence face-to-interface, and gets an anus-puckering glimpse of how A.I. is learning – on its own – how to self-drive the global economy straight into the next industrial revolution. Could you tell if a robot is stealing your job, or even writing this episode description? The answer will definitely surprise you.

5. Counterfeiting Kills Economies (And Helps Them Too)
A counterfeit hundred dollar bill might ruin your weekend, but did you know it could also disrupt a nation's economy? Kal Penn meets the folks in the fight against fakes, trying to save industries from the threat of bogus goods and even terrorism. But he also learns that a symbiotic relationship between copycats and creators might just be the thing that lets economies thrive in the first place.

6. The Death Episode
Death is our final destination – and a real money-maker! Kal Penn takes a deep dive into the death economy to learn the true value of a human life. Hitmen and judges, funeral directors and football fans all help Kal lay his burning questions to rest: How much should I spend on a coffin? How much sex should I have to maximize my return on dying? And where can I get a good taco in the afterlife?

7. Is Money Bullshit?
It's the age-old, existential question: What is money, really? Host Kal Penn navigates a modern return to the barter system, the political highs and lows of the gold standard and the "because I said so" logic of fiat currency. Kal also untangles the complexities of cryptocurrency and learns how to survive an economic apocalypse without getting eaten.

8. A Global Corruption Tour
How are fancy handbag habits, broken bridges and the Hollywood red carpet connected to a looted economy? Kal Penn finds out as he uncovers the hidden world of bribery, extortion, nepotism and embezzlement. He meets brave individuals who've risked everything to stop corruption and learns how a country's attempts to appear corruption-free are tied to mandatory toilet flushing.

General
Unique ID : 116556989589053786694693348510468531456 (0x57B00F4512AA6176F67E819EA55DE500)
Complete name : This.Giant.Beast.That.is.the.Global.Economy.S01E01.Money.Laundering.A.How.To.Guide.AMZN.WEB-DL.mkv
Format : Matroska
Format version : Version 4 / Version 2
File size : 518 MiB
Duration : 45 min 51 s
Overall bit rate : 1 578 kb/s

Video
ID : 1
Format : AVC
Format/Info : Advanced Video Codec
Format profile : Main@L3
Format settings, CABAC : Yes
Format settings, ReFrames : 4 frames
Codec ID : V_MPEG4/ISO/AVC
Duration : 45 min 51 s
Bit rate mode : Constant
Bit rate : 1 379 kb/s
Nominal bit rate : 2 000 kb/s
Width : 720 pixels
Height : 404 pixels
Display aspect ratio : 16:9
Frame rate mode : Constant
Frame rate : 23.976 (24000/1001) FPS
Color space : YUV
Chroma subsampling : 4:2:0
Bit depth : 8 bits
Scan type : Progressive
Bits/(Pixel*Frame) : 0.198
Stream size : 452 MiB (87%)
Default : Yes
Forced : No
Color range : Limited
Color primaries : BT.709
Transfer characteristics : BT.709
Matrix coefficients : BT.709

Audio
ID : 2
Format : E-AC-3
Format/Info : Enhanced Audio Coding 3
Format settings, Endianness : Big
Codec ID : A_EAC3
Duration : 45 min 51 s
Bit rate mode : Constant
Bit rate : 192 kb/s
Channel(s) : 6 channels
Channel positions : Front: L C R, Side: L R, LFE
Sampling rate : 48.0 kHz
Frame rate : 187.500 FPS (256 spf)
Compression mode : Lossy
Stream size : 63.0 MiB (12%)
Language : English
Service kind : Complete Main
Default : Yes
Forced : No

Text #1
ID : 3
Format : UTF-8
Codec ID : S_TEXT/UTF8
Codec ID/Info : UTF-8 Plain Text
Duration : 45 min 42 s
Bit rate : 119 b/s
Count of elements : 1037
Stream size : 39.9 KiB (0%)
Title : SDH
Language : English
Default : No
Forced : No

Text #2
ID : 4
Format : UTF-8
Codec ID : S_TEXT/UTF8
Codec ID/Info : UTF-8 Plain Text
Duration : 45 min 39 s
Bit rate : 181 b/s
Count of elements : 961
Stream size : 60.8 KiB (0%)
Language : Arabic
Default : No
Forced : No

Text #3
ID : 5
Format : UTF-8
Codec ID : S_TEXT/UTF8
Codec ID/Info : UTF-8 Plain Text
Duration : 45 min 39 s
Bit rate : 98 b/s
Count of elements : 961
Stream size : 32.8 KiB (0%)
Language : Chinese
Default : No
Forced : No

Text #4
ID : 6
Format : UTF-8
Codec ID : S_TEXT/UTF8
Codec ID/Info : UTF-8 Plain Text
Duration : 45 min 39 s
Bit rate : 98 b/s
Count of elements : 961
Stream size : 32.8 KiB (0%)
Language : Chinese
Default : No
Forced : No

Text #5
ID : 7
Format : UTF-8
Codec ID : S_TEXT/UTF8
Codec ID/Info : UTF-8 Plain Text
Duration : 45 min 39 s
Bit rate : 116 b/s
Count of elements : 945
Stream size : 39.1 KiB (0%)
Language : Danish
Default : No
Forced : No

Text #6
ID : 8
Format : UTF-8
Codec ID : S_TEXT/UTF8
Codec ID/Info : UTF-8 Plain Text
Duration : 45 min 39 s
Bit rate : 104 b/s
Count of elements : 733
Stream size : 34.9 KiB (0%)
Language : German
Default : No
Forced : No

Text #7
ID : 9
Format : UTF-8
Codec ID : S_TEXT/UTF8
Codec ID/Info : UTF-8 Plain Text
Duration : 45 min 39 s
Bit rate : 120 b/s
Count of elements : 958
Stream size : 40.1 KiB (0%)
Language : Spanish
Default : No
Forced : No

Text #8
ID : 10
Format : UTF-8
Codec ID : S_TEXT/UTF8
Codec ID/Info : UTF-8 Plain Text
Duration : 45 min 39 s
Bit rate : 120 b/s
Count of elements : 958
Stream size : 40.1 KiB (0%)
Language : Spanish
Default : No
Forced : No

Text #9
ID : 11
Format : UTF-8
Codec ID : S_TEXT/UTF8
Codec ID/Info : UTF-8 Plain Text
Duration : 45 min 39 s
Bit rate : 110 b/s
Count of elements : 947
Stream size : 36.8 KiB (0%)
Language : Finnish
Default : No
Forced : No

Text #10
ID : 12
Format : UTF-8
Codec ID : S_TEXT/UTF8
Codec ID/Info : UTF-8 Plain Text
Duration : 45 min 39 s
Bit rate : 114 b/s
Count of elements : 951
Stream size : 38.4 KiB (0%)
Language : French
Default : No
Forced : No

Text #11
ID : 13
Format : UTF-8
Codec ID : S_TEXT/UTF8
Codec ID/Info : UTF-8 Plain Text
Duration : 45 min 39 s
Bit rate : 303 b/s
Count of elements : 961
Stream size : 101 KiB (0%)
Language : Hindi
Default : No
Forced : No

Text #12
ID : 14
Format : UTF-8
Codec ID : S_TEXT/UTF8
Codec ID/Info : UTF-8 Plain Text
Duration : 45 min 39 s
Bit rate : 97 b/s
Count of elements : 955
Stream size : 32.6 KiB (0%)
Language : Indonesian
Default : No
Forced : No

Text #13
ID : 15
Format : UTF-8
Codec ID : S_TEXT/UTF8
Codec ID/Info : UTF-8 Plain Text
Duration : 45 min 39 s
Bit rate : 117 b/s
Count of elements : 958
Stream size : 39.2 KiB (0%)
Language : Italian
Default : No
Forced : No

Text #14
ID : 16
Format : UTF-8
Codec ID : S_TEXT/UTF8
Codec ID/Info : UTF-8 Plain Text
Duration : 45 min 39 s
Bit rate : 135 b/s
Count of elements : 961
Stream size : 45.4 KiB (0%)
Language : Korean
Default : No
Forced : No

Text #15
ID : 17
Format : UTF-8
Codec ID : S_TEXT/UTF8
Codec ID/Info : UTF-8 Plain Text
Duration : 45 min 39 s
Bit rate : 114 b/s
Count of elements : 954
Stream size : 38.2 KiB (0%)
Language : Norwegian Bokmal
Default : No
Forced : No

Text #16
ID : 18
Format : UTF-8
Codec ID : S_TEXT/UTF8
Codec ID/Info : UTF-8 Plain Text
Duration : 45 min 39 s
Bit rate : 103 b/s
Count of elements : 951
Stream size : 34.7 KiB (0%)
Language : Dutch
Default : No
Forced : No

Text #17
ID : 19
Format : UTF-8
Codec ID : S_TEXT/UTF8
Codec ID/Info : UTF-8 Plain Text
Duration : 45 min 39 s
Bit rate : 110 b/s
Count of elements : 946
Stream size : 36.8 KiB (0%)
Language : Polish
Default : No
Forced : No

Text #18
ID : 20
Format : UTF-8
Codec ID : S_TEXT/UTF8
Codec ID/Info : UTF-8 Plain Text
Duration : 45 min 39 s
Bit rate : 115 b/s
Count of elements : 950
Stream size : 38.5 KiB (0%)
Language : Portuguese
Default : No
Forced : No

Text #19
ID : 21
Format : UTF-8
Codec ID : S_TEXT/UTF8
Codec ID/Info : UTF-8 Plain Text
Duration : 45 min 39 s
Bit rate : 204 b/s
Count of elements : 961
Stream size : 68.5 KiB (0%)
Language : Russian
Default : No
Forced : No

Text #20
ID : 22
Format : UTF-8
Codec ID : S_TEXT/UTF8
Codec ID/Info : UTF-8 Plain Text
Duration : 45 min 39 s
Bit rate : 102 b/s
Count of elements : 950
Stream size : 34.3 KiB (0%)
Language : Swedish
Default : No
Forced : No

Text #21
ID : 23
Format : UTF-8
Codec ID : S_TEXT/UTF8
Codec ID/Info : UTF-8 Plain Text
Duration : 45 min 39 s
Bit rate : 323 b/s
Count of elements : 961
Stream size : 108 KiB (0%)
Language : Tamil
Default : No
Forced : No

Text #22
ID : 24
Format : UTF-8
Codec ID : S_TEXT/UTF8
Codec ID/Info : UTF-8 Plain Text
Duration : 45 min 39 s
Bit rate : 296 b/s
Count of elements : 961
Stream size : 99.2 KiB (0%)
Language : Telugu
Default : No
Forced : No

Text #23
ID : 25
Format : UTF-8
Codec ID : S_TEXT/UTF8
Codec ID/Info : UTF-8 Plain Text
Duration : 45 min 39 s
Bit rate : 109 b/s
Count of elements : 956
Stream size : 36.7 KiB (0%)
Language : Turkish
Default : No
Forced : No

Menu
00:00:00.000 : en:Amazon Original
00:00:05.000 : en:What is money laundering?
00:01:22.000 : en:Opening Credits
00:01:35.000 : en:The Panama Papers
00:04:54.000 : en:Figuring out how money laundering works
00:11:30.000 : en:Off to Miami to meet an expert
00:17:36.000 : en:Willful blindness in Cyprus
00:23:31.000 : en:Real estate is a safe bet
00:26:55.000 : en:A Cyprus law firm gives an inside view
00:32:03.000 : en:It's easy to clean your money if you own the bank
00:39:09.000 : en:Corporation friendly laws in Delaware
00:43:55.000 : en:Freshly cleaned cash
00:44:49.000 : en:End Credits


Screenshots:

This Giant Beast That is the Global Economy (2019)

This Giant Beast That is the Global Economy (2019)

This Giant Beast That is the Global Economy (2019)

This Giant Beast That is the Global Economy (2019)