Tags
Language
Tags

Doclights - Time Flies (2020)

Posted By: Tutorial
1080p (FullHD) / HDTV
Doclights - Time Flies (2020)

Doclights - Time Flies (2020)
HDTV | 1920 x 1080 | .MP4/AVC @ 4500 Kbps | 40 min 0 s | 1.28 GB
Audio: English AAC 161 Kbps, 2 channels | Subs: English
Genre: Documentary

We like to think we can control everything: changing the course of water, reclaiming land, replanting deserts. But there’s one thing we can’t control: the passing of time. But we can change how we see things; using cameras we can start to see the world in different time frames.

General
Complete name : Time.Flies..mp4
Format : MPEG-4
Format profile : Base Media
Codec ID : isom (isom/iso2/avc1/mp41)
File size : 1.28 GiB
Duration : 40 min 0 s
Overall bit rate mode : Variable
Overall bit rate : 4 568 kb/s
Movie name : Time.Flies.1080p.HDTV.x264.AAC..org
Performer : VideoProc
Genre : Video
Writing application : Lavf58.29.100
Comment : Time.Flies.1080p.HDTV.x264.AAC..org

Video
ID : 1
Format : AVC
Format/Info : Advanced Video Codec
Format profile : High@L4.1
Format settings, CABAC : Yes
Format settings, ReFrames : 1 frame
Codec ID : avc1
Codec ID/Info : Advanced Video Coding
Duration : 40 min 0 s
Bit rate : 4 500 kb/s
Width : 1 920 pixels
Height : 1 080 pixels
Display aspect ratio : 16:9
Frame rate mode : Constant
Frame rate : 25.000 FPS
Color space : YUV
Chroma subsampling : 4:2:0
Bit depth : 8 bits
Scan type : Progressive
Bits/(Pixel*Frame) : 0.087
Stream size : 1.23 GiB (96%)
Writing library : x264 core 159
Encoding settings : cabac=1 / ref=1 / deblock=1:-1:-1 / analyse=0x3:0x13 / me=hex / subme=2 / psy=1 / psy_rd=1.00:0.15 / mixed_ref=0 / me_range=16 / chroma_me=1 / trellis=0 / 8x8dct=1 / cqm=0 / deadzone=21,11 / fast_pskip=1 / chroma_qp_offset=0 / threads=3 / lookahead_threads=1 / sliced_threads=0 / nr=0 / decimate=1 / interlaced=0 / bluray_compat=0 / constrained_intra=0 / bframes=0 / weightp=1 / keyint=250 / keyint_min=25 / scenecut=40 / intra_refresh=0 / rc_lookahead=10 / rc=cbr / mbtree=1 / bitrate=4500 / ratetol=1.0 / qcomp=0.60 / qpmin=0 / qpmax=69 / qpstep=4 / vbv_maxrate=4500 / vbv_bufsize=1835 / nal_hrd=none / filler=0 / ip_ratio=1.40 / aq=1:1.00

Audio
ID : 2
Format : AAC
Format/Info : Advanced Audio Codec
Format profile : LC
Codec ID : 40
Duration : 40 min 0 s
Bit rate mode : Constant
Bit rate : 161 kb/s
Channel(s) : 2 channels
Channel positions : Front: L R
Sampling rate : 48.0 kHz
Frame rate : 46.875 FPS (1024 spf)
Compression mode : Lossy
Stream size : 46.0 MiB (4%)
Default : Yes
Alternate group : 1

Text
ID : 3
Format : Timed Text
Muxing mode : sbtl
Codec ID : tx3g
Duration : 39 min 26 s
Bit rate mode : Variable
Bit rate : 59 b/s
Stream size : 17.0 KiB (0%)
Language : Avestan
Default : Yes
Forced : No
Alternate group : 3
Screenshots

Doclights - Time Flies (2020)

Doclights - Time Flies (2020)

Doclights - Time Flies (2020)

Welcome to my blog - daily update!
Doclights - Time Flies (2020)