Tags
Language
Tags

The Tokyo Night Sky Is Always the Densest Shade of Blue (2017)

Posted By: Tavaz
1080p (FullHD) / BDRip IMDb
The Tokyo Night Sky Is Always the Densest Shade of Blue (2017)

The Tokyo Night Sky Is Always the Densest Shade of Blue (2017)
BDRip | MKV | 1920x804 | Japanese | H265 @ 1381 kbps | DTS @ 1509 kbps | 1 h 47 min | 2.22 GiB
Subtitles: English
Genre: Drama

Mika works as a nurse by day; by night she entertains covetous men at a girls’ bar. Shinji is blind in one eye and ekes out a living as a construction worker. Young and grown-up at the same time, they both lead a lonely existence, but somehow their paths keep miraculously crossing under the Tokyo sky. Can loneliness be experienced together?

Tokyo.Night.Sky.Is.Always.The.Densest.Shade.Of.Blue.2017.BluRay.1080p.x265.10bit-BMTeam.mkv (2.2 GB)



General
Unique ID : 168031557664342660281258651648705734252 (0x7E69B36AF4E65A9C6BB9EA74A0F0A66C)
Complete name : ./Tokyo.Night.Sky.Is.Always.The.Densest.Shade.Of.Blue.2017.BluRay.1080p.x265.10bit-BMTeam.mkv
Format : Matroska
Format version : Version 4 / Version 2
File size : 2.22 GiB
Duration : 1 h 47 min
Overall bit rate : 2 949 kb/s
Encoded date : UTC 2018-05-12T02:01:37Z
Writing application : HandBrake 1.0.7 2017040900
Writing library : Lavf57.7.2

Video
ID : 1
Format : HEVC
Format/Info : High Efficiency Video Coding
Format profile : Main 10@L4@Main
Codec ID : V_MPEGH/ISO/HEVC
Duration : 1 h 47 min
Bit rate : 1 382 kb/s
Width : 1 920 pixels
Height : 804 pixels
Display aspect ratio : 2.40:1
Frame rate mode : Constant
Frame rate : 23.976 (24000/1001) FPS
Color space : YUV
Chroma subsampling : 4:2:0
Bit depth : 10 bits
Bits/(Pixel*Frame) : 0.037
Stream size : 1.04 GiB (47%)
Writing library : x265 2.3+22-db5e22b856f5:[Windows][GCC 6.3.0][64 bit] 10bit
Encoding settings : cpuid=1173503 / frame-threads=3 / numa-pools=12 / wpp / no-pmode / no-pme / no-psnr / no-ssim / log-level=2 / input-csp=1 / input-res=1920x804 / interlace=0 / total-frames=0 / level-idc=0 / high-tier=1 / uhd-bd=0 / ref=4 / no-allow-non-conformance / no-repeat-headers / annexb / no-aud / no-hrd / info / hash=0 / no-temporal-layers / open-gop / min-keyint=24 / keyint=240 / bframes=4 / b-adapt=2 / b-pyramid / bframe-bias=0 / rc-lookahead=25 / lookahead-slices=4 / scenecut=40 / no-intra-refresh / ctu=64 / min-cu-size=8 / rect / no-amp / max-tu-size=32 / tu-inter-depth=1 / tu-intra-depth=1 / limit-tu=0 / rdoq-level=2 / dynamic-rd=0.00 / signhide / no-tskip / nr-intra=0 / nr-inter=0 / no-constrained-intra / strong-intra-smoothing / max-merge=3 / limit-refs=3 / limit-modes / me=3 / subme=3 / merange=57 / temporal-mvp / weightp / no-weightb / no-analyze-src-pics / deblock=0:0 / sao / no-sao-non-deblock / rd=4 / no-early-skip / rskip / no-fast-intra / no-tskip-fast / no-cu-lossless / no-b-intra / rdpenalty=0 / psy-rd=2.00 / psy-rdoq=1.00 / no-rd-refine / analysis-mode=0 / no-lossless / cbqpoffs=0 / crqpoffs=0 / rc=crf / crf=20.0 / qcomp=0.60 / qpstep=4 / stats-write=0 / stats-read=0 / ipratio=1.40 / pbratio=1.30 / aq-mode=1 / aq-strength=1.00 / cutree / zone-count=0 / no-strict-cbr / qg-size=32 / no-rc-grain / qpmax=69 / qpmin=0 / sar=1 / overscan=0 / videoformat=5 / range=0 / colorprim=1 / transfer=1 / colormatrix=1 / chromaloc=0 / display-window=0 / max-cll=0,0 / min-luma=0 / max-luma=1023 / log2-max-poc-lsb=8 / vui-timing-info / vui-hrd-info / slices=1 / opt-qp-pps / opt-ref-list-length-pps / no-multi-pass-opt-rps / scenecut-bias=0.05 / no-opt-cu-delta-qp / no-aq-motion / no-hdr / no-hdr-opt / refine-level=5
Default : Yes
Forced : No
Color range : Limited
Color primaries : BT.709
Transfer characteristics : BT.709
Matrix coefficients : BT.709

Audio
ID : 2
Format : DTS
Format/Info : Digital Theater Systems
Mode : 16
Format settings, Endianness : Big
Codec ID : A_DTS
Duration : 1 h 47 min
Bit rate mode : Constant
Bit rate : 1 509 kb/s
Channel(s) : 6 channels
Channel positions : Front: L C R, Side: L R, LFE
Sampling rate : 48.0 kHz
Frame rate : 93.750 FPS (512 SPF)
Bit depth : 16 bits
Compression mode : Lossy
Stream size : 1.14 GiB (51%)
Title : Surround
Language : Japanese
Default : Yes
Forced : No

Text
ID : 3
Format : PGS
Codec ID : S_HDMV/PGS
Codec ID/Info : Picture based subtitle format used on BDs/HD-DVDs
Language : English
Default : No
Forced : No

Menu
00:00:00.000 : :Chapter 1
00:05:00.050 : :Chapter 2
00:17:02.438 : :Chapter 3
00:25:37.036 : :Chapter 4
00:34:07.462 : :Chapter 5
00:43:24.352 : :Chapter 6
00:51:42.933 : :Chapter 7
01:02:40.340 : :Chapter 8
01:11:21.486 : :Chapter 9
01:20:36.332 : :Chapter 10
01:30:33.178 : :Chapter 11
01:44:33.893 : :Chapter 12





The Tokyo Night Sky Is Always the Densest Shade of Blue (2017)


The Tokyo Night Sky Is Always the Densest Shade of Blue (2017)


The Tokyo Night Sky Is Always the Densest Shade of Blue (2017)


The Tokyo Night Sky Is Always the Densest Shade of Blue (2017)


The Tokyo Night Sky Is Always the Densest Shade of Blue (2017)