Tags
Language
Tags

SBS - Tom Cruise Body And Soul (2020)

Posted By: notbanned
1080p (FullHD) / HDTV
SBS - Tom Cruise Body And Soul (2020)

SBS - Tom Cruise Body And Soul (2020)
HDTV | 1920x1080 | .MKV/AVC @ 3722 Kbps | 52 min 56 s | 1.45 GiB
Audio: English MP2 192 kbps, 2 channels | Subs: English
Genre: Documentary

After a career spanning 40 years, Tom Cruise does not seem to have developed one wrinkle. His legendary smile has dominated many blockbuster productions. This film will try to unveil the man behind the film icon. Although he was, for a long time, Hollywood's highest paid star, Tom Cruise is also a secret and tormented actor whose break-ups and Scientology beliefs provide regular fodder for the tabloids.

General
Unique ID : 313392531411078615265110083701804700982 (0xEBC534C04B8FF9BBE7775FCF84851536)
Complete name : Tom.Cruise.Body.And.Soul.2020.1080p.mkv
Format : Matroska
Format version : Version 4 / Version 2
File size : 1.45 GiB
Duration : 52 min 56 s
Overall bit rate : 3 919 kb/s

Video
ID : 1
Format : AVC
Format/Info : Advanced Video Codec
Format profile : High@L4
Format settings, CABAC : Yes
Format settings, ReFrames : 4 frames
Codec ID : V_MPEG4/ISO/AVC
Duration : 52 min 56 s
Bit rate : 3 722 kb/s
Width : 1 920 pixels
Height : 1 080 pixels
Display aspect ratio : 16:9
Frame rate mode : Variable
Frame rate : 25.041 FPS
Original frame rate : 25.000 FPS
Standard : Component
Color space : YUV
Chroma subsampling : 4:2:0
Bit depth : 8 bits
Scan type : MBAFF
Scan type, store method : Separated fields
Scan order : Top Field First
Bits/(Pixel*Frame) : 0.072
Stream size : 1.38 GiB (95%)
Default : Yes
Forced : No
Color range : Limited
Color primaries : BT.709
Transfer characteristics : BT.709
Matrix coefficients : BT.709

Audio
ID : 2
Format : MPEG Audio
Format version : Version 1
Format profile : Layer 2
Codec ID : A_MPEG/L2
Codec ID/Hint : MP2
Duration : 52 min 56 s
Bit rate mode : Constant
Bit rate : 192 kb/s
Channel(s) : 2 channels
Sampling rate : 48.0 kHz
Frame rate : 41.667 FPS (1152 spf)
Compression mode : Lossy
Stream size : 72.7 MiB (5%)
Language : English
Default : Yes
Forced : No

Text
ID : 3
Format : UTF-8
Codec ID : S_TEXT/UTF8
Codec ID/Info : UTF-8 Plain Text
Duration : 52 min 45 s
Bit rate : 91 b/s
Count of elements : 893
Stream size : 35.4 KiB (0%)
Language : English
Default : No
Forced : No


Screenshots:

SBS - Tom Cruise Body And Soul (2020)

SBS - Tom Cruise Body And Soul (2020)

SBS - Tom Cruise Body And Soul (2020)