ITV Tonight - Energy Bills: Can We Be Smarter? (2017)

Posted By: notbanned
ITV Tonight - Energy Bills: Can We Be Smarter? (2017)

ITV Tonight - Energy Bills: Can We Be Smarter? (2017)
HDTV | 1920x1080 | .MKV/AVC @ 4219 Kbps | 24mn 41s | 795 MiB
Audio: English AC3 192 kbps, 2 channels | Subs: None
Genre: Documentary

As cold weather drives energy bills ever higher, Tonight investigates smart meters, the 11-billion-pound scheme that is supposed to save people money.
Also You Can Look My Other Last: ITV+Tonight


General
Unique ID : 218248456814886403025394093872777894544 (0xA4311FB34C1ABDFF9D94EEF9C3B99A90)
Complete name : Tonight.S19E04.Energy.Bills.Can.We.Be.Smarter.1080p.mkv
Format : Matroska
Format version : Version 4 / Version 2
File size : 795 MiB
Duration : 24mn 41s
Overall bit rate : 4 501 Kbps

Video
ID : 1
Format : AVC
Format/Info : Advanced Video Codec
Format profile : High@L4.1
Format settings, CABAC : Yes
Format settings, ReFrames : 4 frames
Codec ID : V_MPEG4/ISO/AVC
Duration : 24mn 41s
Bit rate : 4 219 Kbps
Width : 1 920 pixels
Height : 1 080 pixels
Display aspect ratio : 16:9
Frame rate mode : Constant
Frame rate : 25.000 fps
Color space : YUV
Chroma subsampling : 4:2:0
Bit depth : 8 bits
Scan type : Progressive
Bits/(Pixel*Frame) : 0.081
Stream size : 745 MiB (94%)
Writing library : x264 core 148 r2744 b97ae06
Encoding settings : cabac=1 / ref=4 / deblock=1:-2:-2 / analyse=0x3:0x113 / me=hex / subme=8 / psy=1 / psy_rd=1.00:0.00 / mixed_ref=1 / me_range=16 / chroma_me=1 / trellis=2 / 8x8dct=1 / cqm=0 / deadzone=21,11 / fast_pskip=1 / chroma_qp_offset=-2 / threads=12 / lookahead_threads=2 / sliced_threads=0 / nr=0 / decimate=1 / interlaced=0 / bluray_compat=0 / constrained_intra=0 / bframes=3 / b_pyramid=2 / b_adapt=1 / b_bias=0 / direct=3 / weightb=1 / open_gop=0 / weightp=2 / keyint=250 / keyint_min=25 / scenecut=40 / intra_refresh=0 / rc_lookahead=50 / rc=crf / mbtree=1 / crf=20.0 / qcomp=0.60 / qpmin=0 / qpmax=69 / qpstep=4 / ip_ratio=1.40 / aq=1:1.00
Language : English
Default : Yes
Forced : No
DURATION : 00:24:41.960000000
NUMBER_OF_FRAMES : 37049
NUMBER_OF_BYTES : 797886823
_STATISTICS_WRITING_APP : mkvmerge v9.7.1 ('Pandemonium') 64bit
_STATISTICS_WRITING_DATE_UTC : 2017-02-04 13:49:21
_STATISTICS_TAGS : BPS DURATION NUMBER_OF_FRAMES NUMBER_OF_BYTES

Audio
ID : 2
Format : AC-3
Format/Info : Audio Coding 3
Mode extension : CM (complete main)
Format settings, Endianness : Big
Codec ID : A_AC3
Duration : 24mn 41s
Bit rate mode : Constant
Bit rate : 192 Kbps
Channel(s) : 2 channels
Channel positions : Front: L R
Sampling rate : 48.0 KHz
Compression mode : Lossy
Stream size : 33.9 MiB (4%)
Language : English
Default : Yes
Forced : No


Screenshots:

ITV Tonight - Energy Bills: Can We Be Smarter? (2017)

ITV Tonight - Energy Bills: Can We Be Smarter? (2017)

ITV Tonight - Energy Bills: Can We Be Smarter? (2017)

ITV Tonight - Energy Bills: Can We Be Smarter? (2017)