Top Gear S19E05 (2013)

Posted By: vivid23
Top Gear S19E05 (2013)

Top Gear S19E05 (2013)
HDTV | 1280x720 | MKV/x264 @ 3471 Kbps | 61mn | Audio: English AC3 192 kbps, 2 channels | Subs: None | 1.61 GB
Genre: Documentary

Jeremy Clarkson and Richard Hammond tackle the twin problems of an ageing population and the increasing complexity of modern cars. Their solution is to design a vehicle exclusively for the elderly and then test it out in Dorset with a little help from a trio of pensioners. James May assesses the new Range Rover around London and then shifts to Nevada for the ultimate challenge against an autonomous military machine. Plus actor James McAvoy is the star in the Reasonably Priced Car.

More info

Video
ID : 1
Format : AVC
Format/Info : Advanced Video Codec
Format profile : High@L4.1
Format settings, CABAC : Yes
Format settings, ReFrames : 5 frames
Codec ID : V_MPEG4/ISO/AVC
Duration : 1h 1mn
Bit rate : 3 471 Kbps
Width : 1 280 pixels
Height : 720 pixels
Display aspect ratio : 16:9
Frame rate : 25.000 fps
Color space : YUV
Chroma subsampling : 4:2:0
Bit depth : 8 bits
Scan type : Progressive
Bits/(Pixel*Frame) : 0.151
Stream size : 1.50 GiB (93%)
Writing library : x264 core 129 r2245 bc13772
Encoding settings : cabac=1 / ref=5 / deblock=1:-1:-1 / analyse=0x3:0x113 / me=umh / subme=8 / psy=1 / psy_rd=1.00:0.15 / mixed_ref=1 / me_range=16 / chroma_me=1 / trellis=1 / 8x8dct=1 / cqm=0 / deadzone=21,11 / fast_pskip=1 / chroma_qp_offset=-3 / threads=12 / lookahead_threads=2 / sliced_threads=0 / nr=0 / decimate=1 / interlaced=0 / bluray_compat=0 / constrained_intra=0 / bframes=3 / b_pyramid=2 / b_adapt=2 / b_bias=0 / direct=3 / weightb=1 / open_gop=0 / weightp=2 / keyint=250 / keyint_min=25 / scenecut=40 / intra_refresh=0 / rc_lookahead=50 / rc=crf / mbtree=1 / crf=21.0 / qcomp=0.60 / qpmin=0 / qpmax=69 / qpstep=4 / ip_ratio=1.40 / aq=1:1.00

Audio
ID : 2
Format : AC-3
Format/Info : Audio Coding 3
Mode extension : CM (complete main)
Codec ID : A_AC3
Duration : 1h 1mn
Bit rate mode : Constant
Bit rate : 192 Kbps
Channel(s) : 2 channels
Channel positions : Front: L R
Sampling rate : 48.0 KHz
Bit depth : 16 bits
Compression mode : Lossy
Video delay : 8ms
Stream size : 84.9 MiB (5%)
Title : English
Language : English


Top Gear S19E05 (2013)

Top Gear S19E05 (2013)


Feel free to contact me when links are dead