BBC - Tornado: The 100mph Steam Engine (2017)

Posted By: Tutorial
BBC - Tornado: The 100mph Steam Engine (2017)

BBC - Tornado: The 100mph Steam Engine (2017)
HDTV | 1280 x 720 | .MP4/AVC @ 2914 Kbps | 28 min 58 s | 638 MB
Audio: English AAC 160 Kbps, 2 channels | Subs: English
Genre: Documentary

The new A1 class steam engine Tornado tries to achieve 100mph on the main line. The secret speed attempt will be made in the dead of night. If it tops the ton it will be the first time in 50 years steam has gone this fast. Tornado was built over two decades and financed by enthusiasts who want to show steam has a viable future on Britain's railways.

General
Complete name : BBC.Tornado.The.100mph.Steam.Engine.mp4
Format : MPEG-4
Format profile : Base Media
Codec ID : isom (isom)
File size : 638 MiB
Duration : 28 min 58 s
Overall bit rate mode : Variable
Overall bit rate : 3 078 kb/s
Encoded date : UTC 2017-08-08 22:57:14
Tagged date : UTC 2017-08-08 22:57:14
Writing application : My MP4Box GUI 0.6.0.6

Video
ID : 1
Format : AVC
Format/Info : Advanced Video Codec
Format profile : High@L4.1
Format settings, CABAC : Yes
Format settings, ReFrames : 4 frames
Codec ID : avc1
Codec ID/Info : Advanced Video Coding
Duration : 28 min 58 s
Bit rate : 2 914 kb/s
Maximum bit rate : 7 056 kb/s
Width : 1 280 pixels
Height : 720 pixels
Display aspect ratio : 16:9
Frame rate mode : Constant
Frame rate : 25.000 FPS
Color space : YUV
Chroma subsampling : 4:2:0
Bit depth : 8 bits
Scan type : Progressive
Bits/(Pixel*Frame) : 0.126
Stream size : 604 MiB (95%)
Title : BBC.Tornado.The.100mph.Steam.Engine.720p.HDTV.x264.AAC
Writing library : x264 core 130 r2273 b3065e6
Encoding settings : cabac=1 / ref=1 / deblock=1:0:0 / analyse=0x3:0x3 / me=dia / subme=1 / psy=1 / psy_rd=1.00:0.00 / mixed_ref=0 / me_range=16 / chroma_me=1 / trellis=0 / 8x8dct=1 / cqm=0 / deadzone=21,11 / fast_pskip=1 / chroma_qp_offset=0 / threads=6 / lookahead_threads=1 / sliced_threads=0 / nr=0 / decimate=1 / interlaced=0 / bluray_compat=0 / constrained_intra=0 / bframes=3 / b_pyramid=2 / b_adapt=1 / b_bias=0 / direct=1 / weightb=1 / open_gop=0 / weightp=1 / keyint=250 / keyint_min=25 / scenecut=40 / intra_refresh=0 / rc_lookahead=0 / rc=crf / mbtree=0 / crf=22.0 / qcomp=0.60 / qpmin=0 / qpmax=69 / qpstep=4 / vbv_maxrate=62500 / vbv_bufsize=78125 / crf_max=0.0 / nal_hrd=none / ip_ratio=1.40 / pb_ratio=1.30 / aq=1:1.00
Encoded date : UTC 2017-08-08 22:26:11
Tagged date : UTC 2017-08-08 22:57:21
Color range : Limited
Color primaries : BT.709
Transfer characteristics : BT.709
Matrix coefficients : BT.709

Audio
ID : 2
Format : AAC
Format/Info : Advanced Audio Codec
Format profile : LC
Codec ID : 40
Duration : 28 min 58 s
Bit rate mode : Variable
Bit rate : 160 kb/s
Maximum bit rate : 237 kb/s
Channel(s) : 2 channels
Channel positions : Front: L R
Sampling rate : 48.0 kHz
Frame rate : 46.875 FPS (1024 spf)
Compression mode : Lossy
Stream size : 33.2 MiB (5%)
Title : BBC.Tornado.The.100mph.Steam.Engine.720p.HDTV.x264.AAC
Encoded date : UTC 2017-08-08 22:57:19
Tagged date : UTC 2017-08-08 22:57:21

Text
ID : 3
Format : Timed Text
Codec ID : tx3g
Duration : 28 min 27 s
Bit rate mode : Variable
Bit rate : 214 b/s
Stream size : 44.7 KiB (0%)
Title : BBC.Tornado.The.100mph.Steam.Engine.720p.HDTV.x264.AAC
Forced : No
Encoded date : UTC 2017-08-08 22:57:21
Tagged date : UTC 2017-08-08 22:57:21
Screenshots

BBC - Tornado: The 100mph Steam Engine (2017)

BBC - Tornado: The 100mph Steam Engine (2017)

Welcome to my blog - daily update!

BBC - Tornado: The 100mph Steam Engine (2017)