Tags
Language
Tags

Touch of Death (1988)

Posted By: Tavaz
720p (HD) / BDRip IMDb
Touch of Death (1988)

Touch of Death (1988)
BDRip | MKV | 1280x720 | Italiano / English | H264 @ 2560 kbps | AC-3 @ 192 kbps | 1 h 25 min | 1.77 GiB
Subtitles: English
Genre: Comedy, Horror

The financially strained and increasingly desperate, Lester Parsons concocts a brilliant get-rich-quick scheme; cruise the lonely hearts adds for rich women to fleece. Too bad then, that Lester’s also a psychotic cannibal who enjoys mutilating these lovelorn souls, via his trusty chainsaw, and using their flesh for his dinner. When a copycat killer threatens to bring him down, Lester must do all he can to prevent this new killer’s sloppy work from ruining them both.

075f8da4a4690b773837164c0c81b3f8.mkv (1.8 GB)



General
Unique ID : 28199982019480294751812109301707849169 (0x15371E757D5A139D8670488BC1323DD1)
Complete name : ./075f8da4a4690b773837164c0c81b3f8.mkv
Format : Matroska
Format version : Version 4 / Version 2
File size : 1.77 GiB
Duration : 1 h 25 min
Overall bit rate : 2 946 kb/s
Movie name : Touch.of.Death.1988.720p.BluRay.x264-x0r
Encoded date : UTC 2020-11-13 19:52:38
Writing application : mkvmerge v7.7.0 ('Six Voices') 64bit built on Mar 1 2015 01:50:05
Writing library : libebml v1.3.1 + libmatroska v1.4.2

Video
ID : 1
Format : AVC
Format/Info : Advanced Video Codec
Format profile : High@L4
Format settings : CABAC / 8 Ref Frames
Format settings, CABAC : Yes
Format settings, RefFrames : 8 frames
Codec ID : V_MPEG4/ISO/AVC
Duration : 1 h 25 min
Bit rate : 2 560 kb/s
Width : 1 280 pixels
Height : 720 pixels
Display aspect ratio : 16:9
Frame rate mode : Constant
Frame rate : 23.976 FPS
Color space : YUV
Chroma subsampling : 4:2:0
Bit depth : 8 bits
Scan type : Progressive
Bits/(Pixel*Frame) : 0.116
Stream size : 1.54 GiB (87%)
Writing library : x264 core 142 r2389 956c8d8
Encoding settings : cabac=1 / ref=8 / deblock=1:-2:-2 / analyse=0x3:0x133 / me=umh / subme=9 / psy=1 / psy_rd=1.00:0.25 / mixed_ref=0 / me_range=24 / chroma_me=1 / trellis=2 / 8x8dct=1 / cqm=0 / deadzone=6,6 / fast_pskip=0 / chroma_qp_offset=-4 / threads=12 / lookahead_threads=1 / sliced_threads=0 / nr=0 / decimate=1 / interlaced=0 / bluray_compat=0 / constrained_intra=0 / bframes=4 / b_pyramid=2 / b_adapt=2 / b_bias=0 / direct=3 / weightb=1 / open_gop=0 / weightp=2 / keyint=240 / keyint_min=24 / scenecut=40 / intra_refresh=0 / rc_lookahead=80 / rc=2pass / mbtree=1 / bitrate=2560 / ratetol=1.0 / qcomp=0.00 / qpmin=0 / qpmax=69 / qpstep=4 / cplxblur=20.0 / qblur=0.5 / vbv_maxrate=20000 / vbv_bufsize=25000 / nal_hrd=none / filler=0 / ip_ratio=1.10 / aq=1:1.00
Language : English
Default : Yes
Forced : No
Color range : Limited
Color primaries : BT.709
Transfer characteristics : BT.709
Matrix coefficients : BT.709

Audio #1
ID : 2
Format : AC-3
Format/Info : Audio Coding 3
Format settings, Endianness : Big
Codec ID : A_AC3
Duration : 1 h 25 min
Bit rate mode : Constant
Bit rate : 192 kb/s
Channel(s) : 2 channels
Channel positions : Front: L R
Sampling rate : 48.0 kHz
Frame rate : 31.250 FPS (1536 SPF)
Bit depth : 16 bits
Compression mode : Lossy
Delay relative to video : -5 ms
Stream size : 118 MiB (7%)
Title : Stereo
Language : English
Service kind : Complete Main
Default : Yes
Forced : No

Audio #2
ID : 3
Format : AC-3
Format/Info : Audio Coding 3
Format settings, Endianness : Big
Codec ID : A_AC3
Duration : 1 h 25 min
Bit rate mode : Constant
Bit rate : 192 kb/s
Channel(s) : 2 channels
Channel positions : Front: L R
Sampling rate : 48.0 kHz
Frame rate : 31.250 FPS (1536 SPF)
Bit depth : 16 bits
Compression mode : Lossy
Delay relative to video : -5 ms
Stream size : 118 MiB (7%)
Title : Stereo
Language : Italian
Service kind : Complete Main
Default : No
Forced : No

Text
ID : 4
Format : UTF-8
Codec ID : S_TEXT/UTF8
Codec ID/Info : UTF-8 Plain Text
Duration : 1 h 23 min
Bit rate : 39 b/s
Count of elements : 649
Stream size : 23.9 KiB (0%)
Language : English
Default : Yes
Forced : No

Menu
00:00:00.000 : :Chapter 1
00:09:30.695 : :Chapter 2
00:18:03.749 : :Chapter 3
00:27:34.903 : :Chapter 4
00:39:07.345 : :Chapter 5
00:52:40.741 : :Chapter 6
01:06:25.940 : :Chapter 7
01:18:13.147 : :Chapter 8
01:25:55.150 : :Chapter 9





Touch of Death (1988)


Touch of Death (1988)


Touch of Death (1988)


Touch of Death (1988)


Touch of Death (1988)