Toxic Hot Seat (2013)

Posted By: Tavaz
SD / HDTV IMDb
Toxic Hot Seat (2013)

Toxic Hot Seat (2013)
HDTV | AVI | 640x360 | MP4V-ES @ 987 kbps | MPEG Audio @ 128 kbps | 1 h 31 min | 736 MiB
Genre: Documentary

TOXIC HOT SEAT follows a courageous group of firefighters and mothers, journalists and scientists, politicians…

Toxic.Hot.Seat.2013.Documentary.Uncut.Version.HDTV.XviD.avi (735.7 MB)



General
Complete name : ./Toxic.Hot.Seat.2013.Documentary.Uncut.Version.HDTV.XviD/Toxic.Hot.Seat.2013.Documentary.Uncut.Version.HDTV.XviD.avi
Format : AVI
Format/Info : Audio Video Interleave
File size : 736 MiB
Duration : 1 h 31 min
Overall bit rate mode : Variable
Overall bit rate : 1 128 kb/s

Video
ID : 0
Format : MPEG-4 Visual
Format profile : Advanced Simple@L5
Format settings : BVOP2
Format settings, BVOP : 2
Format settings, QPel : No
Format settings, GMC : No warppoints
Format settings, Matrix : Default (H.263)
Codec ID : XVID
Codec ID/Hint : XviD
Duration : 1 h 31 min
Bit rate : 988 kb/s
Width : 640 pixels
Height : 360 pixels
Display aspect ratio : 16:9
Frame rate : 23.976 (24000/1001) FPS
Color space : YUV
Chroma subsampling : 4:2:0
Bit depth : 8 bits
Scan type : Progressive
Compression mode : Lossy
Bits/(Pixel*Frame) : 0.179
Stream size : 644 MiB (88%)
Writing library : XviD 64

Audio
ID : 1
Format : MPEG Audio
Format version : Version 1
Format profile : Layer 3
Format settings : Joint stereo / MS Stereo
Mode : Joint stereo
Mode extension : MS Stereo
Codec ID : 55
Codec ID/Hint : MP3
Duration : 1 h 31 min
Bit rate mode : Variable
Bit rate : 128 kb/s
Channel(s) : 2 channels
Sampling rate : 48.0 kHz
Compression mode : Lossy
Stream size : 83.5 MiB (11%)
Alignment : Aligned on interleaves
Interleave, duration : 24 ms (0.58 video frame)
Interleave, preload duration : 178 ms
Title : HBO.Documentary.Toxic.Hot.Seat.HDTV.XviD-AFG_360p.audio





Toxic Hot Seat (2013)


Toxic Hot Seat (2013)


Toxic Hot Seat (2013)


Toxic Hot Seat (2013)


Toxic Hot Seat (2013)