Tags
Language
Tags

Toy Story 4 (2019)

Posted By: JohnSmith
720p (HD) / BDRip IMDb
Toy Story 4 (2019)

Toy Story 4 (2019)
BDRip 720p | MKV / AVC@3180 kb/s | 1280x536 | 1h 40mn
Français (VFQ): AC3, 640 kb/s (6 ch) | Subtitles: Français | 2.67 GB
Genre: Animation | Adventure | Comedy | Family | Fantasy

Woody a toujours privilégié la joie et le bien-être de ses jeunes propriétaires – Andy puis Bonnie – et de ses compagnons, n’hésitant pas à prendre tous les risques pour eux, aussi inconsidérés soient-ils. L’arrivée de Forky un nouveau jouet qui ne veut pas en être un dans la chambre de Bonnie met toute la petite bande en émoi. C’est le début d’une grande aventure et d’un extraordinaire voyage pour Woody et ses amis. Le cowboy va découvrir à quel point le monde peut être vaste pour un jouet…


General
Unique ID : 179778116463820684607196425178740891371 (0x8740017B14CCBE5584626259D1671EEB)
Complete name : A:\Toy.Story.4.2019.FRENCH.720p.BluRay.mkv
Format : Matroska
Format version : Version 2
File size : 2.67 GiB
Duration : 1 h 40 min
Overall bit rate : 3 820 kb/s
Encoded date : UTC 2019-09-27 19:32:42
Writing application : mkvmerge v7.8.0 ('River Man') 32bit built on Apr 3 2015 12:11:22
Writing library : libebml v1.3.1 + libmatroska v1.4.2

Video
ID : 1
Format : AVC
Format/Info : Advanced Video Codec
Format profile : High@L4.1
Format settings : CABAC / 10 Ref Frames
Format settings, CABAC : Yes
Format settings, Reference : 10 frames
Codec ID : V_MPEG4/ISO/AVC
Duration : 1 h 40 min
Bit rate : 3 178 kb/s
Width : 1 280 pixels
Height : 536 pixels
Display aspect ratio : 2.40:1
Frame rate mode : Constant
Frame rate : 23.976 FPS
Color space : YUV
Chroma subsampling : 4:2:0
Bit depth : 8 bits
Scan type : Progressive
Bits/(Pixel*Frame) : 0.193
Stream size : 2.17 GiB (81%)
Writing library : x264 core 158 r2984 3759fcb
Encoding settings : cabac=1 / ref=10 / deblock=1:1:1 / analyse=0x3:0x113 / me=umh / subme=8 / psy=1 / psy_rd=0.40:0.00 / mixed_ref=1 / me_range=16 / chroma_me=1 / trellis=1 / 8x8dct=1 / cqm=0 / deadzone=21,11 / fast_pskip=1 / chroma_qp_offset=-2 / threads=17 / lookahead_threads=2 / sliced_threads=0 / nr=0 / decimate=1 / interlaced=0 / bluray_compat=0 / constrained_intra=0 / bframes=5 / b_pyramid=2 / b_adapt=1 / b_bias=0 / direct=3 / weightb=1 / open_gop=0 / weightp=2 / keyint=250 / keyint_min=23 / scenecut=40 / intra_refresh=0 / rc_lookahead=50 / rc=2pass / mbtree=1 / bitrate=3178 / ratetol=1.0 / qcomp=0.60 / qpmin=0 / qpmax=69 / qpstep=4 / cplxblur=20.0 / qblur=0.5 / ip_ratio=1.40 / aq=1:0.60
Language : English
Default : Yes
Forced : No

Audio
ID : 2
Format : AC-3
Format/Info : Audio Coding 3
Commercial name : Dolby Digital
Codec ID : A_AC3
Duration : 1 h 40 min
Bit rate mode : Constant
Bit rate : 640 kb/s
Channel(s) : 6 channels
Channel layout : L R C LFE Ls Rs
Sampling rate : 48.0 kHz
Frame rate : 31.250 FPS (1536 SPF)
Bit depth : 16 bits
Compression mode : Lossy
Stream size : 458 MiB (17%)
Language : French
Service kind : Complete Main
Default : Yes
Forced : No

Text
ID : 3
Format : UTF-8
Codec ID : S_TEXT/UTF8
Codec ID/Info : UTF-8 Plain Text
Title : French
Language : French
Default : No
Forced : No

Menu
00:00:00.000 : en:00:00:00.000
00:05:39.798 : en:00:05:39.798
00:11:21.097 : en:00:11:21.097
00:15:06.239 : en:00:15:06.239
00:19:01.140 : en:00:19:01.140
00:20:52.042 : en:00:20:52.042
00:22:43.821 : en:00:22:43.821
00:26:11.111 : en:00:26:11.111
00:27:47.082 : en:00:27:47.082
00:32:11.846 : en:00:32:11.846
00:36:17.425 : en:00:36:17.425
00:40:34.640 : en:00:40:34.640
00:42:56.699 : en:00:42:56.699
00:44:26.872 : en:00:44:26.872
00:46:39.380 : en:00:46:39.380
00:48:06.175 : en:00:48:06.175
00:49:18.664 : en:00:49:18.664
00:52:25.809 : en:00:52:25.809
00:53:58.568 : en:00:53:58.568
00:54:34.479 : en:00:54:34.479
00:59:06.960 : en:00:59:06.960
01:01:30.645 : en:01:01:30.645
01:04:40.752 : en:01:04:40.752
01:07:25.249 : en:01:07:25.249
01:09:31.042 : en:01:09:31.042
01:10:54.834 : en:01:10:54.834
01:12:05.154 : en:01:12:05.154
01:15:03.040 : en:01:15:03.040
01:17:29.770 : en:01:17:29.770
01:18:04.846 : en:01:18:04.846
01:19:21.840 : en:01:19:21.840
01:19:48.116 : en:01:19:48.116
01:22:24.940 : en:01:22:24.940
01:29:00.293 : en:01:29:00.293




Screenshots

Toy Story 4 (2019)

Toy Story 4 (2019)

Toy Story 4 (2019)